<?xml version="1.0" standalone="no"?>
<!DOCTYPE svg PUBLIC "-//W3C//DTD SVG 1.1//EN" "http://www.w3.org/Graphics/SVG/1.1/DTD/svg11.dtd" >
<svg xmlns="http://www.w3.org/2000/svg">
<metadata>
Created by FontPrep 20130207 at Tue Feb 25 16:00:33 2014
 By Michael Teeuw
Copyright (c) 1981, 1982, 1983, 1989 and 1993, Linotype Library GmbH or its affiliated Linotype-Hell companies. All rights reserved.

The digitally encoded machine readable software for producing the Typefaces licensed to you is now the property of Heidelberger Druckmaschinen AG and its licensors, and may not be reproduced, used, displayed, modified, disclosed or transferred without the express written approval of Heidelberger Druckmaschinen AG.

Copyright (c) 1988, 1990, 1993 Adobe Systems Incorporated. All Rights Reserved.
</metadata>
<defs>
<font id="7384ecabcada72f0e077cd45d8e1c705" horiz-adv-x='1024' >
  <font-face 
    font-family="HelveticaNeue-Light"
    font-weight="300"
    font-stretch="normal"
    units-per-em="2048"
    panose-1="2 0 4 3 0 0 0 2 0 4"
    ascent="1638"
    descent="-410"
    x-height="1057"
    cap-height="1462"
    bbox="-881 -690 2908 2382"
    underline-thickness="102"
    underline-position="-153"
    unicode-range="U+0008-FE48"
  />
<missing-glyph horiz-adv-x="1024" 
d="M102 1049h820v-1049h-820v1049zM905 16v1016h-786v-1016h786z" />
    <glyph glyph-name="fi" unicode="fi" horiz-adv-x="909" 
d="M655 1057h129v-1057h-129v1057zM446 1354q-36 0 -65 -16q-53 -30 -57 -109q-2 -37 -2 -80v-92h208v-109h-208v-948h-129v948h-181v109h181v96q0 154 49 223q62 88 207 86q48 0 108 -8v-111q-75 11 -111 11zM655 1462h129v-207h-129v207z" />
    <glyph glyph-name="fl" unicode="fl" horiz-adv-x="909" 
d="M446 1354q-36 0 -65 -16q-53 -30 -57 -109q-2 -37 -2 -80v-92h208v-109h-208v-948h-129v948h-181v109h181v96q0 154 49 223q62 88 207 86q48 0 108 -8v-111q-75 11 -111 11zM655 1462h129v-1462h-129v1462z" />
    <glyph glyph-name=".notdef" horiz-adv-x="1024" 
d="M102 1049h820v-1049h-820v1049zM905 16v1016h-786v-1016h786z" />
    <glyph glyph-name=".null" horiz-adv-x="0" 
 />
    <glyph glyph-name="nonmarkingreturn" horiz-adv-x="681" 
 />
    <glyph glyph-name="controlBS" horiz-adv-x="0" 
 />
    <glyph glyph-name="controlHT" unicode="&#x9;" horiz-adv-x="569" 
 />
    <glyph glyph-name="controlCR" unicode="&#xd;" horiz-adv-x="569" 
 />
    <glyph glyph-name="controlGS" horiz-adv-x="0" 
 />
    <glyph glyph-name="space" unicode=" " horiz-adv-x="569" 
 />
    <glyph glyph-name="exclam" unicode="!" horiz-adv-x="493" 
d="M178 1462h139v-436l-30 -661h-78l-31 661v436zM162 0v217h172v-217h-172z" />
    <glyph glyph-name="quotedbl" unicode="&#x22;" horiz-adv-x="757" 
d="M178 1462h129v-497h-129v497zM451 1462h129v-497h-129v497z" />
    <glyph glyph-name="numbersign" unicode="#" horiz-adv-x="1138" 
d="M1018 457h-227l-64 -457h-102l63 457h-289l-63 -457h-103l64 457h-225v92h237l45 319h-225v93h238l63 454h102l-63 -454h289l63 454h103l-64 -454h215v-93h-227l-45 -319h215v-92zM457 868l-45 -319h288l45 319h-288z" />
    <glyph glyph-name="dollar" unicode="$" horiz-adv-x="1138" 
d="M606 78q229 0 315 163q29 56 29 133q-1 187 -223 259q-61 20 -121 35v-590zM526 1384q-129 0 -215 -75t-86 -230q0 -180 190 -235q54 -16 111 -31v571zM219 1384q123 109 307 109v160h80v-160q182 0 311 -125t123 -319h-129q-2 155 -86 245t-219 90v-589
q219 -45 325 -119q148 -104 148 -297t-141 -300q-141 -108 -332 -108v-174h-80v176q-240 23 -350 142t-117 352h129q4 -352 338 -389v606q-212 44 -302 116q-128 102 -128 288q0 187 123 296z" />
    <glyph glyph-name="percent" unicode="%" horiz-adv-x="1820" 
d="M466 1354q-118 0 -173 -100q-43 -76 -43 -197q0 -193 109 -265q43 -28 107 -28q115 0 173 98q45 77 45 195t-35 179q-35 62 -77 90t-106 28zM1317 1485h96l-926 -1553h-98zM1366 743q165 0 244 -105q80 -105 82 -282q0 -274 -178 -356q-62 -29 -148 -29q-165 0 -245 104
q-79 104 -81 281q0 273 178 358q62 29 148 29zM1583 354q0 196 -112 270q-43 28 -107 27q-119 0 -172 -99q-43 -76 -43 -198q0 -191 109 -265q42 -28 106 -28q116 0 174 99q45 77 45 194zM467 1446q164 0 244 -105t82 -282q0 -273 -178 -358q-62 -29 -148 -29
q-167 1 -245 105t-81 282q0 271 177 357q63 30 149 30z" />
    <glyph glyph-name="ampersand" unicode="&#x26;" horiz-adv-x="1251" 
d="M209 368q0 -122 94 -206t214 -84q212 0 355 209l-364 442q-53 -29 -107 -63q-115 -76 -165 -180q-26 -54 -27 -118zM1110 647q0 -195 -86 -350l246 -297h-162l-156 190q-80 -100 -190 -159t-222 -59q-211 -1 -336 106q-124 108 -124 301q0 243 358 434q-92 116 -119 160
q-61 101 -61 181q0 140 95 225t230 84t229 -85q95 -84 93 -213q0 -172 -180 -306q-51 -38 -107 -73l320 -385q27 53 35 107t8 139h129zM582 1354q-80 0 -138 -48t-57 -141q0 -93 111 -230q29 -36 53 -65q104 67 144 110q81 88 81 183t-57 143t-137 48z" />
    <glyph glyph-name="quotesingle" unicode="'" horiz-adv-x="569" 
d="M221 1462h129v-497h-129v497z" />
    <glyph glyph-name="parenleft" unicode="(" horiz-adv-x="493" 
d="M496 1493q-261 -421 -263 -995q0 -335 155 -684q48 -109 108 -203h-103q-219 364 -269 679q-19 120 -20 255q0 498 289 948h103z" />
    <glyph glyph-name="parenright" unicode=")" horiz-adv-x="493" 
d="M260 604q0 426 -260 889h100q146 -243 218 -462q71 -219 71 -474q0 -496 -289 -946h-100q260 426 260 993z" />
    <glyph glyph-name="asterisk" unicode="*" horiz-adv-x="720" 
d="M319 1462h80v-252l236 84l31 -75l-242 -80l147 -201l-65 -47l-150 205l-149 -205l-66 47l150 201l-236 80l29 75l235 -84v252z" />
    <glyph glyph-name="plus" unicode="+" horiz-adv-x="1228" 
d="M561 1030h109v-461h460v-108h-460v-461h-109v461h-461v108h461v461z" />
    <glyph glyph-name="comma" unicode="," horiz-adv-x="569" 
d="M371 217v-217q0 -93 -34 -151q-62 -105 -147 -128v89q42 13 71 77q29 63 24 113h-86v217h172z" />
    <glyph glyph-name="hyphen" unicode="-" horiz-adv-x="757" 
d="M123 504v119h512v-119h-512z" />
    <glyph glyph-name="period" unicode="." horiz-adv-x="569" 
d="M199 0v217h172v-217h-172z" />
    <glyph glyph-name="slash" unicode="/" horiz-adv-x="681" 
d="M-25 -29l629 1522h105l-625 -1522h-109z" />
    <glyph glyph-name="zero" unicode="0" horiz-adv-x="1138" 
d="M569 1337q-123 0 -197 -63q-74 -64 -111 -158q-62 -154 -62 -407q0 -254 62 -409q38 -94 112 -158q75 -64 197 -64t196 63t112 159q62 156 62 409q0 254 -62 407q-38 94 -112 158t-197 63zM1069 709q0 -738 -500 -738q-156 0 -254 68q-183 127 -226 412q-19 131 -19 257
q0 315 93 494q54 106 152 175t255 69q279 0 406 -244q93 -183 93 -493z" />
    <glyph glyph-name="one" unicode="1" horiz-adv-x="1138" 
d="M707 1434v-1434h-129v1065h-379v92q85 2 153 9t118 34q107 58 132 234h105z" />
    <glyph glyph-name="two" unicode="2" horiz-adv-x="1138" 
d="M1018 0h-944q5 266 258 456q72 54 148 104t150 102q168 117 223 234q30 62 30 140q0 140 -92 220q-92 81 -243 81t-233 -113q-81 -113 -77 -286h-129q-4 229 113 368q117 140 345 140q191 0 318 -104t127 -300q0 -232 -225 -412q-107 -85 -261 -177t-243 -202
q-49 -60 -62 -132h797v-119z" />
    <glyph glyph-name="three" unicode="3" horiz-adv-x="1138" 
d="M578 698h-109v109h109q114 0 203 68t88 197t-87 197t-234 68q-147 0 -234 -98t-85 -264h-129q0 204 124 338q124 133 316 133q193 0 325 -92t132 -273q0 -117 -62 -203t-179 -114v-4q141 -23 218 -118q77 -94 77 -218q0 -222 -143 -338q-143 -115 -359 -115
q-217 0 -358 129q-140 129 -123 357h129q-8 -172 90 -276q98 -105 260 -104t269 87q106 86 106 232q0 145 -96 223q-97 79 -248 79z" />
    <glyph glyph-name="four" unicode="4" horiz-adv-x="1138" 
d="M842 1434v-969h215v-109h-215v-356h-119v356h-662v125l664 953h117zM723 465v780h-4l-541 -780h545z" />
    <glyph glyph-name="five" unicode="5" horiz-adv-x="1138" 
d="M258 817q112 133 316 133q98 0 187 -37q177 -73 248 -259q33 -91 33 -197q-1 -213 -144 -350q-144 -136 -351 -136t-338 119t-135 320h129q4 -147 104 -241q100 -93 254 -92q155 1 255 116q99 115 98 275q-1 159 -104 266q-102 108 -272 108q-88 0 -173 -44
q-84 -44 -138 -126h-110l139 743h717v-119h-627l-92 -475z" />
    <glyph glyph-name="six" unicode="6" horiz-adv-x="1138" 
d="M845 187q95 103 95 262q0 158 -93 267t-256 109t-259 -108t-94 -271q0 -255 196 -340q68 -28 154 -28q153 0 257 109zM211 696h4q51 106 155 172t219 66q116 0 203 -36q175 -72 243 -251q34 -88 34 -192q-1 -211 -137 -347t-348 -137q-266 0 -384 174t-118 586
q0 142 24 241q51 214 147 326q126 148 330 148q408 0 451 -375h-129q-16 119 -95 193t-204 74t-203 -64q-192 -155 -192 -578z" />
    <glyph glyph-name="seven" unicode="7" horiz-adv-x="1138" 
d="M104 1415h922v-119q-345 -355 -501 -838q-67 -208 -79 -458h-139q24 368 163 669q139 302 427 627h-793v119z" />
    <glyph glyph-name="eight" unicode="8" horiz-adv-x="1138" 
d="M569 78q166 0 258 79q107 87 107 239t-104 236t-261 81q-243 7 -335 -174q-30 -59 -30 -139t30 -140q55 -119 193 -162q66 -20 142 -20zM1004 1074q0 -104 -62 -186t-172 -116v-4q141 -29 217 -124q76 -96 76 -224q0 -331 -302 -422q-89 -27 -191 -27t-191 27
q-306 92 -301 420q2 124 78 224t211 126v4q-113 35 -173 116t-60 186t37 173q74 133 239 177q78 22 158 22q172 0 304 -93t132 -279zM574 1337q-129 0 -220 -65q-92 -65 -92 -191q0 -125 90 -195t217 -65q128 -4 217 66q90 70 89 196q-1 125 -87 189q-85 65 -214 65z" />
    <glyph glyph-name="nine" unicode="9" horiz-adv-x="1138" 
d="M546 590q161 0 259 108t96 271q0 255 -196 340q-68 29 -153 29q-158 -1 -257 -108q-98 -107 -96 -261q0 -78 23 -148q48 -143 176 -201q64 -30 148 -30zM534 78q224 0 322 223q69 155 72 418h-4q-50 -106 -154 -172t-218 -66t-204 36q-175 71 -245 251q-33 88 -33 192
q1 212 137 349q137 137 348 137q264 0 383 -176t119 -586q1 -142 -23 -241q-51 -215 -148 -325q-127 -147 -330 -147q-204 0 -316 91t-136 282h129q15 -118 95 -192t206 -74z" />
    <glyph glyph-name="colon" unicode=":" horiz-adv-x="569" 
d="M199 807v217h172v-217h-172zM199 0v217h172v-217h-172z" />
    <glyph glyph-name="semicolon" unicode=";" horiz-adv-x="569" 
d="M371 217v-217q0 -93 -34 -151q-62 -105 -147 -128v89q42 13 71 77q29 63 24 113h-86v217h172zM199 807v217h172v-217h-172z" />
    <glyph glyph-name="less" unicode="&#x3c;" horiz-adv-x="1228" 
d="M1135 -14l-1041 477v110l1041 480v-113l-914 -422l914 -422v-110z" />
    <glyph glyph-name="equal" unicode="=" horiz-adv-x="1228" 
d="M1130 666h-1030v108h1030v-108zM1130 262h-1030v109h1030v-109z" />
    <glyph glyph-name="greater" unicode="&#x3e;" horiz-adv-x="1228" 
d="M1008 518l-914 422v113l1041 -480v-110l-1041 -477v110z" />
    <glyph glyph-name="question" unicode="?" horiz-adv-x="1099" 
d="M111 1012q0 338 268 446q86 35 184 35q186 0 307 -103t121 -276q0 -114 -50 -194q-51 -80 -121 -148t-108 -105q-38 -36 -56 -71t-25 -85q-6 -50 -8 -144h-129q-4 172 50 272q28 51 73 98t107 103q138 126 138 258q0 131 -86 209q-86 77 -207 77q-160 0 -247 -104
t-82 -268h-129zM473 217h172v-217h-172v217z" />
    <glyph glyph-name="at" unicode="@" horiz-adv-x="1638" 
d="M524 571q0 -92 48 -145t121 -53q131 0 242 173q46 72 73 156t26 155t-51 129t-120 58q-69 0 -133 -47t-110 -117q-96 -148 -96 -309zM881 1153q152 0 217 -172l51 133h108l-196 -590q-51 -167 26 -170q68 0 132 47q124 92 186 285q29 90 29 196t-46 208q-90 197 -312 274
q-105 37 -236 37t-250 -53q-119 -52 -205 -144q-180 -192 -180 -477t185 -474q87 -89 207 -140q119 -51 227 -51q267 -1 456 158q59 50 104 114h105q-95 -169 -267 -266t-352 -97q-342 0 -560 220q-101 103 -157 243q-57 140 -57 302q0 161 59 299q117 279 400 400
q137 58 289 58t278 -46q256 -93 367 -333q53 -117 53 -249q0 -247 -151 -430q-68 -81 -153 -127q-84 -46 -154 -46q-141 0 -154 137h-4q-129 -135 -256 -135q-126 0 -199 85t-75 201q-2 231 132 414q64 85 154 137t199 52z" />
    <glyph glyph-name="A" unicode="A" horiz-adv-x="1290" 
d="M575 1462h156l574 -1462h-150l-178 455h-666l-176 -455h-147zM354 573h576l-283 750z" />
    <glyph glyph-name="B" unicode="B" horiz-adv-x="1366" 
d="M766 119q385 0 385 301q0 141 -99 212t-286 70h-479v-583h479zM147 1462h619q326 0 430 -187q39 -69 39 -149q0 -206 -151 -307q-46 -31 -103 -43v-4q141 -18 225 -116t84 -240q0 -315 -320 -394q-85 -22 -204 -22h-619v1462zM287 821h479q158 0 243 70t87 178
q0 274 -330 274h-479v-522z" />
    <glyph glyph-name="C" unicode="C" horiz-adv-x="1441" 
d="M347 1172q-130 -177 -130 -440t130 -442q149 -202 421 -202q196 0 322 134t147 335h139q-28 -272 -190 -429t-418 -157q-172 1 -302 63t-216 166q-172 209 -172 530t172 533q86 105 216 167t302 63q219 0 389 -126t199 -347h-139q-36 167 -162 261q-126 95 -279 94
q-283 -2 -429 -203z" />
    <glyph glyph-name="D" unicode="D" horiz-adv-x="1402" 
d="M287 119h297q318 1 460 143t142 470t-144 470q-144 143 -458 141h-297v-1224zM147 1462h506q334 -8 503 -187t169 -544t-169 -544t-503 -187h-506v1462z" />
    <glyph glyph-name="E" unicode="E" horiz-adv-x="1214" 
d="M147 1462h1010v-119h-870v-528h815v-119h-815v-577h880v-119h-1020v1462z" />
    <glyph glyph-name="F" unicode="F" horiz-adv-x="1099" 
d="M147 1462h928v-119h-788v-528h700v-119h-700v-696h-140v1462z" />
    <glyph glyph-name="G" unicode="G" horiz-adv-x="1517" 
d="M1397 0h-101l-18 266h-4q-71 -150 -202 -221q-131 -72 -304 -73q-172 0 -302 62t-216 166q-172 209 -172 530t172 533q86 105 216 167t274 63q393 0 563 -274q55 -90 75 -211h-139q-13 137 -144 251q-131 115 -327 115q-274 0 -421 -202q-130 -177 -130 -440t130 -442
q149 -202 421 -202q238 0 374 149t132 388h-498v118h621v-743z" />
    <glyph glyph-name="H" unicode="H" horiz-adv-x="1441" 
d="M147 1462h140v-635h868v635h139v-1462h-139v709h-868v-709h-140v1462z" />
    <glyph glyph-name="I" unicode="I" horiz-adv-x="454" 
d="M158 1462h139v-1462h-139v1462z" />
    <glyph glyph-name="J" unicode="J" horiz-adv-x="1024" 
d="M737 1462h140v-1054q0 -228 -98 -333q-98 -104 -329 -104q-230 0 -329 153q-78 120 -78 345h139q2 -47 6 -113t29 -125q61 -143 246 -143q158 0 216 85t58 294v995z" />
    <glyph glyph-name="K" unicode="K" horiz-adv-x="1327" 
d="M147 1462h140v-786l850 786h188l-653 -604l684 -858h-180l-609 762l-280 -260v-502h-140v1462z" />
    <glyph glyph-name="L" unicode="L" horiz-adv-x="1099" 
d="M147 1462h140v-1343h819v-119h-959v1462z" />
    <glyph glyph-name="M" unicode="M" horiz-adv-x="1705" 
d="M143 1462h205l506 -1282l504 1282h205v-1462h-140v1264h-4l-499 -1264h-132l-501 1264h-4v-1264h-140v1462z" />
    <glyph glyph-name="N" unicode="N" horiz-adv-x="1441" 
d="M145 1462h156l852 -1237h4v1237h139v-1462h-155l-852 1237h-4v-1237h-140v1462z" />
    <glyph glyph-name="O" unicode="O" horiz-adv-x="1517" 
d="M760 1493q329 0 516 -230q172 -210 172 -532t-172 -530q-189 -228 -516 -230q-172 1 -302 63t-216 166q-172 209 -172 530t172 533q86 105 216 167t302 63zM339 1172q-130 -177 -130 -440t130 -442q149 -202 421 -202t419 202q130 177 130 441t-130 441
q-149 202 -421 202t-419 -202z" />
    <glyph glyph-name="P" unicode="P" horiz-adv-x="1290" 
d="M147 1462h650q200 0 317 -111t117 -307t-118 -307q-118 -112 -316 -110h-510v-627h-140v1462zM287 745h479q145 0 235 74q91 73 91 225t-90 226t-236 73h-479v-598z" />
    <glyph glyph-name="Q" unicode="Q" horiz-adv-x="1517" 
d="M1309 721q0 274 -130 451q-149 202 -421 202t-419 -202q-130 -177 -130 -440t130 -442q149 -202 421 -202q156 0 270 72l-192 145l71 88l213 -162q98 91 142 225t45 265zM760 1493q329 0 516 -230q172 -210 172 -532q0 -173 -55 -323t-166 -256l209 -158l-70 -86
l-227 170q-150 -106 -379 -107q-172 1 -302 63t-216 166q-172 209 -172 530t172 533q86 105 216 167t302 63z" />
    <glyph glyph-name="R" unicode="R" horiz-adv-x="1366" 
d="M147 1462h670q303 0 409 -210q36 -74 36 -192t-72 -220t-213 -131v-4q196 -27 238 -208q17 -72 22 -207q8 -222 63 -290h-153q-23 39 -28 91q-5 53 -7 83t-5 81q-11 184 -51 264q-68 137 -241 130h-528v-649h-140v1462zM287 768h520q135 0 226 79t90 210t-79 209t-237 77
h-520v-575z" />
    <glyph glyph-name="S" unicode="S" horiz-adv-x="1290" 
d="M1077 385q0 114 -99 182q-69 49 -202 82l-325 80q-154 39 -230 107q-102 93 -100 245q0 253 252 368q97 44 229 44q250 0 407 -120q156 -120 156 -335h-139q-8 159 -123 248q-115 90 -276 88q-250 0 -336 -153q-31 -55 -31 -122q0 -156 136 -212q40 -16 85 -27l357 -88
q272 -70 349 -231q30 -63 30 -154q0 -135 -82 -242q-133 -174 -477 -174q-130 0 -240 30q-228 62 -308 249q-42 96 -36 231h139q-7 -388 477 -393q143 0 251 69q136 84 136 228z" />
    <glyph glyph-name="T" unicode="T" horiz-adv-x="1138" 
d="M-8 1462h1157v-119h-510v-1343h-139v1343h-508v119z" />
    <glyph glyph-name="U" unicode="U" horiz-adv-x="1402" 
d="M133 1462h139v-905q0 -362 248 -443q80 -26 181 -26q211 0 321 112t108 357v905h140v-936q0 -243 -140 -399t-430 -156q-289 0 -435 164q-132 145 -132 391v936z" />
    <glyph glyph-name="V" unicode="V" horiz-adv-x="1214" 
d="M-12 1462h147l475 -1308h4l471 1308h148l-543 -1462h-162z" />
    <glyph glyph-name="W" unicode="W" horiz-adv-x="1857" 
d="M0 1462h150l331 -1280h4l357 1280h174l358 -1280h4l334 1280h139l-403 -1462h-148l-370 1309h-4l-369 -1309h-151z" />
    <glyph glyph-name="X" unicode="X" horiz-adv-x="1175" 
d="M6 1462h164l414 -612l428 612h155l-499 -712l528 -750h-168l-444 645l-451 -645h-156l525 754z" />
    <glyph glyph-name="Y" unicode="Y" horiz-adv-x="1251" 
d="M694 0h-139v602l-573 860h163l482 -741l479 741h166l-578 -860v-602z" />
    <glyph glyph-name="Z" unicode="Z" horiz-adv-x="1175" 
d="M76 1462h1052v-123l-962 -1220h983v-119h-1139v123l963 1220h-897v119z" />
    <glyph glyph-name="bracketleft" unicode="[" horiz-adv-x="493" 
d="M156 -389v1882h329v-109h-200v-1665h200v-108h-329z" />
    <glyph glyph-name="backslash" unicode="\" horiz-adv-x="681" 
d="M598 -29l-623 1522h103l631 -1522h-111z" />
    <glyph glyph-name="bracketright" unicode="]" horiz-adv-x="493" 
d="M338 1493v-1882h-330v108h201v1665h-201v109h330z" />
    <glyph glyph-name="asciicircum" unicode="^" horiz-adv-x="1228" 
d="M90 487l471 928h107l471 -928h-117l-410 799l-403 -799h-119z" />
    <glyph glyph-name="underscore" unicode="_" horiz-adv-x="1024" 
d="M0 -254v102h1024v-102h-1024z" />
    <glyph glyph-name="grave" unicode="`" horiz-adv-x="378" 
d="M-61 1493h157l215 -289h-104z" />
    <glyph glyph-name="a" unicode="a" 
d="M799 578h-4q-16 -31 -104 -46q-87 -16 -174 -27q-322 -41 -322 -203q1 -107 69 -166q69 -58 154 -58q169 0 275 91t106 241v168zM111 733q23 354 420 354t397 -339v-562q0 -78 76 -77q23 0 40 8v-109q-46 -8 -89 -8q-122 0 -141 110q-5 34 -5 74h-4q-78 -114 -159 -163
q-80 -49 -226 -50q-245 0 -327 169q-27 58 -27 154t49 158t130 95t182 46t174 21t104 14q92 19 93 126q2 185 -168 216q-50 9 -108 9q-122 0 -200 -58t-82 -188h-129z" />
    <glyph glyph-name="b" unicode="b" horiz-adv-x="1175" 
d="M969 528q0 185 -88 318t-267 133t-279 -143q-83 -119 -83 -308q0 -298 198 -410q71 -40 168 -40q96 0 162 40q129 79 169 248q20 80 20 162zM123 1462h129v-606h4q38 107 139 169t225 62q232 0 355 -159q123 -160 123 -400t-122 -398q-122 -159 -353 -159
q-129 -1 -231 59t-146 171h-4v-201h-119v1462z" />
    <glyph glyph-name="c" unicode="c" 
d="M569 -29q-234 0 -368 161q-133 161 -132 398t134 397t366 160q170 0 288 -90t140 -272h-129q-58 254 -299 254q-174 0 -273 -136t-98 -315q1 -180 99 -315t272 -135q120 0 208 86t100 215h129q-27 -193 -142 -301t-295 -107z" />
    <glyph glyph-name="d" unicode="d" horiz-adv-x="1175" 
d="M207 528q0 -294 188 -410q66 -40 163 -40t168 40q194 109 196 409t-196 412q-71 40 -168 40q-177 0 -270 -143q-81 -122 -81 -308zM1053 0h-119v201h-4q-41 -104 -148 -166t-229 -63q-121 -1 -210 43q-174 86 -237 299q-29 101 -28 214q0 241 122 400t353 159
q192 0 308 -131q38 -43 59 -100h4v606h129v-1462z" />
    <glyph glyph-name="e" unicode="e" 
d="M199 494q0 -263 190 -377q66 -39 158 -39q141 0 221 74t111 196h129q-41 -180 -151 -278t-310 -99q-241 0 -360 160t-118 392q1 233 113 389q126 175 365 175q238 0 363 -185q111 -164 102 -408h-813zM199 602h684q-4 152 -96 265q-92 112 -240 112t-240 -110
q-93 -111 -108 -267z" />
    <glyph glyph-name="f" unicode="f" horiz-adv-x="530" 
d="M446 1354q-36 0 -65 -16q-53 -30 -57 -109q-2 -37 -2 -80v-92h208v-109h-208v-948h-129v948h-181v109h181v96q0 154 49 223q62 88 207 86q48 0 108 -8v-111q-75 11 -111 11z" />
    <glyph glyph-name="g" unicode="g" horiz-adv-x="1138" 
d="M283 251q96 -130 258 -130t254 123t92 298t-85 306t-256 131t-265 -137q-82 -116 -82 -298t84 -293zM1016 86q0 -375 -251 -471q-89 -35 -193 -35q-200 0 -326 82t-137 238h129q27 -162 204 -200q51 -11 105 -11q180 0 260 102t80 295v143h-4q-45 -98 -132 -157
q-87 -60 -209 -60q-235 -1 -354 151q-120 151 -119 385t128 388q127 153 350 151q172 0 283 -131q34 -39 53 -82h4v183h129v-971z" />
    <glyph glyph-name="h" unicode="h" horiz-adv-x="1099" 
d="M121 1462h129v-588h4q37 96 131 154t206 59q311 0 370 -237q18 -76 18 -170v-680h-129v659q0 320 -268 320q-149 0 -239 -102q-91 -102 -93 -261v-616h-129v1462z" />
    <glyph glyph-name="i" unicode="i" horiz-adv-x="378" 
d="M125 1057h129v-1057h-129v1057zM125 1462h129v-207h-129v207z" />
    <glyph glyph-name="j" unicode="j" horiz-adv-x="378" 
d="M254 -96q0 -296 -225 -293l-88 4v106q42 -5 67 -2q76 0 96 44t21 110v1184h129v-1153zM125 1462h129v-207h-129v207z" />
    <glyph glyph-name="k" unicode="k" horiz-adv-x="1024" 
d="M123 1462h129v-917l586 512h172l-451 -391l481 -666h-161l-418 575l-209 -174v-401h-129v1462z" />
    <glyph glyph-name="l" unicode="l" horiz-adv-x="378" 
d="M125 1462h129v-1462h-129v1462z" />
    <glyph glyph-name="m" unicode="m" horiz-adv-x="1705" 
d="M788 717q0 258 -221 262q-158 0 -237 -107q-78 -107 -78 -282v-590h-129v1057h119v-178h6q108 208 346 208q104 0 189 -51t114 -155q47 104 139 155t197 51q350 0 350 -370v-717h-129v711q0 131 -55 199t-202 69q-147 0 -220 -117q-59 -95 -59 -264v-598h-130v717z" />
    <glyph glyph-name="n" unicode="n" horiz-adv-x="1099" 
d="M121 1057h129v-183h4q37 96 131 154t206 59q311 0 370 -237q18 -76 18 -170v-680h-129v659q0 320 -268 320q-149 0 -239 -102q-91 -102 -93 -261v-616h-129v1057z" />
    <glyph glyph-name="o" unicode="o" horiz-adv-x="1138" 
d="M940 922q129 -156 129 -394t-132 -397q-131 -160 -367 -160q-235 0 -369 161q-133 161 -132 398t134 397t364 160q232 0 373 -165zM570 78q92 0 161 39q137 76 185 247q24 80 24 164q0 177 -98 314t-273 137q-91 0 -161 -39q-135 -76 -185 -243q-49 -167 0 -335
q49 -169 185 -245q70 -39 162 -39z" />
    <glyph glyph-name="p" unicode="p" horiz-adv-x="1175" 
d="M969 528q0 185 -88 318t-258 133q-200 0 -293 -135q-78 -111 -78 -316q0 -298 198 -410q71 -40 168 -40q96 0 162 40q129 79 169 248q20 80 20 162zM123 1057h119v-201h4q45 111 146 171q100 60 226 60q234 0 357 -159q123 -160 123 -400t-122 -398q-122 -159 -353 -159
q-192 0 -309 129q-38 43 -58 101h-4v-590h-129v1446z" />
    <glyph glyph-name="q" unicode="q" horiz-adv-x="1175" 
d="M207 528q0 -294 188 -410q66 -40 163 -40t168 40q194 109 196 409t-196 412q-71 40 -168 40q-177 0 -270 -143q-81 -122 -81 -308zM1053 -389h-129v590h-4q-39 -111 -140 -169q-101 -59 -224 -60q-124 -1 -213 43q-174 86 -237 299q-29 101 -28 214q0 241 122 400
t353 159q186 0 316 -136q40 -42 61 -95h4v201h119v-1446z" />
    <glyph glyph-name="r" unicode="r" horiz-adv-x="645" 
d="M123 1057h119v-248h4q49 129 152 199t247 63v-129q-172 8 -283 -101q-110 -108 -110 -278v-563h-129v1057z" />
    <glyph glyph-name="s" unicode="s" horiz-adv-x="985" 
d="M229 801q0 -108 148 -161q39 -13 72 -22l172 -38q198 -29 274 -172q27 -51 27 -129q0 -79 -39 -139q-107 -166 -390 -168q-181 -1 -297 87t-133 283h130q8 -131 95 -198t216 -66q180 0 261 107q28 37 28 89q0 126 -147 172q-42 14 -85 25l-166 37q-135 34 -215 97
q-80 62 -80 199t129 216q109 67 269 67q260 0 352 -190q31 -63 35 -149h-129q-2 59 -25 103q-67 128 -242 128t-237 -96q-23 -35 -23 -82z" />
    <glyph glyph-name="t" unicode="t" horiz-adv-x="606" 
d="M199 948h-185v109h185v317h129v-317h215v-109h-215v-712q0 -64 17 -100t79 -38t119 4v-108l-115 -4q-129 0 -180 50t-49 185v723z" />
    <glyph glyph-name="u" unicode="u" horiz-adv-x="1099" 
d="M121 371v686h129v-688q4 -143 66 -217t217 -74t241 131q74 112 76 293v555h129v-1057h-119v190h-4q-51 -106 -148 -162t-216 -57q-371 0 -371 400z" />
    <glyph glyph-name="v" unicode="v" horiz-adv-x="948" 
d="M4 1057h143l332 -928h4l328 928h133l-395 -1057h-137z" />
    <glyph glyph-name="w" unicode="w" horiz-adv-x="1517" 
d="M16 1057h138l270 -905h4l258 905h145l259 -905h4l270 905h137l-340 -1057h-141l-260 889h-4l-258 -889h-142z" />
    <glyph glyph-name="x" unicode="x" horiz-adv-x="985" 
d="M412 549l-379 508h162l301 -402l295 402h161l-381 -506l412 -551h-164l-332 444l-325 -444h-160z" />
    <glyph glyph-name="y" unicode="y" horiz-adv-x="948" 
d="M206 -281q94 0 144 99q14 31 31 67l45 119l-422 1053h137l348 -901l326 901h129l-459 -1217q-59 -138 -98 -172q-39 -35 -79 -46t-112 -9t-87 8v109q63 -11 97 -11z" />
    <glyph glyph-name="z" unicode="z" horiz-adv-x="948" 
d="M913 109v-109h-882v104l690 844h-643v109h807v-92l-699 -856h727z" />
    <glyph glyph-name="braceleft" unicode="{" horiz-adv-x="681" 
d="M446 885q0 -232 -143 -332v-4q84 -51 125 -188q18 -60 18 -144v-287q0 -146 61 -193q22 -17 52 -18h41v-108h-102q-86 0 -133 70t-48 186v301q0 328 -147 328v108q147 0 147 328v305q-1 117 47 187t134 69h102v-109h-41q-108 0 -113 -210v-289z" />
    <glyph glyph-name="bar" unicode="|" horiz-adv-x="454" 
d="M174 1610h109v-2046h-109v2046z" />
    <glyph glyph-name="braceright" unicode="}" horiz-adv-x="681" 
d="M236 217q0 232 143 332v4q-84 50 -125 187q-18 60 -18 145v289q0 146 -61 193q-22 17 -52 17h-41v109h102q86 0 133 -70t48 -186v-303q0 -328 147 -328v-108q-147 0 -147 -328v-303q1 -117 -47 -187t-134 -69h-102v108h41q108 0 113 211v287z" />
    <glyph glyph-name="asciitilde" unicode="~" horiz-adv-x="1228" 
d="M397 637q83 -1 189 -47t157 -66t101 -20t93 44q42 44 77 97l73 -74q-60 -87 -97 -116q-73 -58 -146 -59q-74 0 -129 20t-109 46t-106 46q-53 20 -117 20q-63 0 -103 -44t-65 -97l-74 74q85 176 256 176z" />
    <glyph glyph-name="uni007F.controlDEL" horiz-adv-x="0" 
 />
    <glyph glyph-name="nonbreakingspace" unicode="&#xa0;" horiz-adv-x="569" 
 />
    <glyph glyph-name="exclamdown" unicode="&#xa1;" horiz-adv-x="493" 
d="M317 -389h-139v420l31 661h78l30 -661v-420zM334 1057v-217h-172v217h172z" />
    <glyph glyph-name="cent" unicode="&#xa2;" horiz-adv-x="1138" 
d="M240 529q0 -263 175 -394q58 -43 138 -55v895q-148 -22 -231 -150q-82 -128 -82 -296zM633 -236h-80v209q-205 19 -325 178q-119 158 -118 379t118 377t325 176v183h80v-179q164 -4 275 -98t130 -264h-129q-53 246 -276 254v-901q108 4 191 91q82 87 94 210h129
q-25 -186 -136 -294t-278 -114v-207z" />
    <glyph glyph-name="sterling" unicode="&#xa3;" horiz-adv-x="1138" 
d="M397 676q49 -79 49 -216t-142 -282q-40 -41 -83 -74l4 -4q118 60 213 61t195 -40q43 -15 84 -29t99 -14t122 34q63 34 106 81l66 -99q-142 -123 -287 -123q-109 0 -229 41t-198 41q-77 0 -116 -16t-118 -66l-74 109q105 86 149 150q80 115 80 231q0 47 -16 110t-41 105
h-166v65h129q-114 184 -112 330q0 205 137 313t348 109q211 0 336 -128t121 -357h-129q0 166 -87 271t-243 105t-256 -84t-98 -237q0 -108 81 -241q22 -36 39 -81h328v-65h-291z" />
    <glyph glyph-name="currency" unicode="&#xa4;" horiz-adv-x="1138" 
d="M63 712q0 177 111 312l-115 115l78 78l115 -115q137 115 314 115q178 0 319 -113l112 113l78 -78l-110 -111q116 -144 115 -321q-1 -176 -115 -318l110 -110l-78 -78l-112 112q-135 -114 -314 -113t-319 115l-115 -114l-78 78l117 116q-113 140 -113 317zM193 710
q0 -167 110 -279q111 -112 269 -112q159 0 269 113q111 113 110 278q-1 164 -111 276t-269 112q-78 0 -147 -30q-142 -60 -202 -204q-30 -70 -29 -154z" />
    <glyph glyph-name="yen" unicode="&#xa5;" horiz-adv-x="1138" 
d="M225 715h217l-430 747h148l407 -747l412 747h141l-432 -747h223v-92h-268l-12 -21v-149h280v-93h-280v-360h-129v360h-277v93h277v149l-13 21h-264v92z" />
    <glyph glyph-name="brokenbar" unicode="&#xa6;" horiz-adv-x="454" 
d="M174 330h109v-510h-109v510zM174 1354h109v-512h-109v512z" />
    <glyph glyph-name="section" unicode="&#xa7;" horiz-adv-x="1138" 
d="M389 915q-168 -71 -168 -217q-1 -82 57 -144t140 -114t172 -99q90 -46 155 -91q173 72 173 221q0 80 -58 143q-58 64 -142 116q-83 52 -173 96t-156 89zM1047 473q0 -147 -138 -241q-41 -28 -86 -46q103 -90 103 -223t-103 -211t-260 -79t-259 93t-103 267h129
q-4 -109 64 -180q68 -72 173 -72q153 0 210 99q19 34 19 96q1 106 -182 222q-78 48 -170 93t-170 100q-182 128 -182 299q0 145 137 241q41 28 86 46q-102 90 -102 224t105 213t260 79q156 0 258 -92t102 -271h-129q4 111 -64 182q-68 72 -174 72q-150 0 -210 -99
q-19 -33 -19 -97t52 -119q84 -89 297 -195q213 -105 303 -229q53 -72 53 -172z" />
    <glyph glyph-name="dieresis" unicode="&#xa8;" horiz-adv-x="378" 
d="M301 1239v207h139v-207h-139zM-59 1239v207h137v-207h-137z" />
    <glyph glyph-name="copyright" unicode="&#xa9;" horiz-adv-x="1638" 
d="M1581 730q0 -321 -219 -540q-102 -102 -242 -160t-301 -58q-162 0 -301 58q-284 120 -402 401q-58 138 -58 299t58 300q119 286 402 405q139 58 301 58t301 -58q140 -57 242 -161t160 -244t59 -300zM1462 731q0 137 -49 256t-135 207t-204 139t-256 51t-256 -51
t-204 -139t-134 -207t-48 -256q0 -277 184 -465t459 -188q137 0 255 51t204 139t135 207t49 256zM393 732q0 202 118 335t327 133q150 0 255 -81t124 -228h-105q-18 92 -89 153q-71 60 -168 62t-161 -27q-126 -57 -171 -201q-46 -144 0 -295q73 -229 332 -229q99 0 169 62
t88 155h105q-20 -147 -124 -227t-232 -81q-336 -3 -437 282q-31 86 -31 187z" />
    <glyph glyph-name="ordfeminine" unicode="&#xaa;" horiz-adv-x="636" 
d="M467 1124h-4q-9 -21 -160 -42q-151 -20 -192 -61q-25 -24 -25 -72t44 -81q44 -34 94 -34q162 0 223 113q19 36 20 81v96zM301 1446q119 0 169 -31t72 -71t21 -103v-352q4 -47 51 -47q14 0 27 6v-70q-30 -6 -55 -6q-63 0 -81 30q-17 30 -18 85h-4q-84 -133 -252 -133
q-104 0 -172 46t-67 150q0 178 231 202q66 7 127 13q61 5 89 17t28 47q0 81 -53 109t-126 28t-124 -35t-53 -108h-97q11 223 287 223z" />
    <glyph glyph-name="guillemotleft" unicode="&#xab;" horiz-adv-x="872" 
d="M453 500v127l272 256v-138l-193 -182l193 -182v-137zM123 500v127l272 256v-138l-192 -182l192 -182v-137z" />
    <glyph glyph-name="logicalnot" unicode="&#xac;" horiz-adv-x="1228" 
d="M1022 666h-922v108h1030v-547h-108v439z" />
    <glyph glyph-name="uni00AD" unicode="&#xad;" horiz-adv-x="757" 
d="M123 623h512v-119h-512v119z" />
    <glyph glyph-name="registered" unicode="&#xae;" horiz-adv-x="1638" 
d="M819 1493q325 0 543 -220q102 -103 160 -243t59 -300q0 -321 -219 -540q-102 -102 -242 -160t-301 -58q-162 0 -301 58q-284 120 -402 401q-58 138 -58 299t58 300q119 286 402 405q139 58 301 58zM818 1384q-138 0 -256 -51t-204 -139t-134 -207t-48 -256
q0 -277 184 -465t459 -188q137 0 255 51t204 139t135 207t49 256t-49 256t-135 207t-204 139t-256 51zM651 682v-391h-108v880h338q288 0 286 -243q0 -202 -221 -246l262 -391h-127l-247 391h-183zM1059 928q0 151 -209 151h-199v-305h144q130 0 175 18q89 36 89 136z" />
    <glyph glyph-name="macron" unicode="&#xaf;" horiz-adv-x="378" 
d="M-145 1298v93h671v-93h-671z" />
    <glyph glyph-name="degree" unicode="&#xb0;" horiz-adv-x="819" 
d="M115 1151q1 61 23 115q46 109 156 156q54 24 116 24q118 0 207 -87q88 -88 88 -209q-1 -122 -87 -208t-208 -86t-210 85q-85 85 -85 210zM256 998q61 -62 154 -62t153 61t61 153q0 92 -62 154t-152 62t-153 -62q-62 -62 -62 -154q0 -90 61 -152z" />
    <glyph glyph-name="plusminus" unicode="&#xb1;" horiz-adv-x="1228" 
d="M561 1030h109v-368h460v-109h-460v-369h-109v369h-459v109h459v368zM100 109h1030v-109h-1030v109z" />
    <glyph glyph-name="twosuperior" unicode="&#xb2;" horiz-adv-x="681" 
d="M366 1366q-215 0 -221 -233h-96q-4 141 72 227t220 86t229 -62t85 -200q0 -137 -147 -242q-58 -42 -161 -100q-180 -100 -206 -201h508v-80h-618q2 100 50 166q75 103 241 196q165 93 217 185q20 37 20 84q0 84 -60 129t-133 45z" />
    <glyph glyph-name="threesuperior" unicode="&#xb3;" horiz-adv-x="681" 
d="M276 1059h72q75 0 128 37q61 39 62 117q0 77 -60 115t-150 38t-144 -59t-51 -152h-96q2 129 80 210t212 81t220 -57t86 -170q0 -72 -41 -123t-117 -68v-4q93 -12 143 -68t50 -133q0 -136 -93 -208t-242 -72t-239 77t-80 224h97q-4 -98 55 -160q58 -62 162 -61
q104 0 174 51t69 135q0 84 -66 127q-67 43 -159 43h-72v80z" />
    <glyph glyph-name="acute" unicode="&#xb4;" horiz-adv-x="378" 
d="M172 1204h-104l215 289h159z" />
    <glyph glyph-name="mu" unicode="&#xb5;" horiz-adv-x="1099" 
d="M252 -389h-131v1446h129v-688q4 -143 66 -217t217 -74t241 131q74 112 76 293v555h129v-1057h-119v190h-4q-51 -106 -148 -162t-229 -56t-227 69v-430z" />
    <glyph glyph-name="paragraph" unicode="&#xb6;" horiz-adv-x="1228" 
d="M559 672q-182 0 -303 115t-121 274q0 197 120 299t337 102h471v-1822h-129v1714h-246v-1714h-129v1032z" />
    <glyph glyph-name="periodcentered" unicode="&#xb7;" horiz-adv-x="569" 
d="M286 768q48 0 84 -37t36 -85t-37 -84t-85 -36t-84 37t-36 85t37 84t85 36z" />
    <glyph glyph-name="cedilla" unicode="&#xb8;" horiz-adv-x="378" 
d="M158 -340q129 0 129 88q0 76 -105 78q-51 0 -88 -16l-33 30l125 160h72l-90 -117q154 25 214 -51q24 -29 24 -76q0 -87 -69 -131q-69 -45 -137 -45q-130 0 -210 43l26 66q79 -29 142 -29z" />
    <glyph glyph-name="onesuperior" unicode="&#xb9;" horiz-adv-x="681" 
d="M416 1427v-866h-97v635h-247v80q131 5 170 21q73 31 92 130h82z" />
    <glyph glyph-name="ordmasculine" unicode="&#xba;" horiz-adv-x="684" 
d="M90 1346q87 100 248 100t250 -97q90 -97 90 -247t-89 -249t-250 -99q-162 0 -247 98q-86 98 -86 246q0 147 84 248zM342 834q59 0 104 24q133 69 136 242q0 107 -65 186q-65 80 -174 80q-110 0 -174 -78t-66 -188q-1 -109 64 -187q64 -79 175 -79z" />
    <glyph glyph-name="guillemotright" unicode="&#xbb;" horiz-adv-x="872" 
d="M477 381l193 182l-193 182v138l273 -256v-127l-273 -256v137zM147 381l193 182l-193 182v138l273 -256v-127l-273 -256v137z" />
    <glyph glyph-name="onequarter" unicode="&#xbc;" horiz-adv-x="1708" 
d="M1200 1485h96l-925 -1553h-99zM442 1427v-866h-96v635h-248v80q132 5 171 21q75 32 91 130h82zM1315 205h-430v80l436 581h90v-581h139v-80h-139v-205h-96v205zM1315 285v442h-4l-332 -442h336z" />
    <glyph glyph-name="onehalf" unicode="&#xbd;" horiz-adv-x="1708" 
d="M1200 1485h96l-925 -1553h-99zM442 1427v-866h-96v635h-248v80q132 5 171 21q75 32 91 130h82zM1294 885q144 -1 229 -63t85 -198t-148 -243q-58 -42 -162 -100t-148 -106t-56 -95h508v-80h-619q2 100 50 166q75 103 242 197t216 184q20 37 20 84q-1 84 -61 129t-132 45
q-220 0 -220 -234h-97q-4 141 72 227q77 86 221 87z" />
    <glyph glyph-name="threequarters" unicode="&#xbe;" horiz-adv-x="1708" 
d="M276 1059h72q75 0 128 37q61 39 62 117q0 77 -60 115t-150 38t-144 -59t-51 -152h-96q2 129 80 210t212 81t220 -57t86 -170q0 -72 -41 -123t-117 -68v-4q93 -12 143 -68t50 -133q0 -136 -93 -208t-242 -72t-239 77t-80 224h97q-4 -98 55 -160q58 -62 162 -61
q104 0 174 51t69 135q0 84 -66 127q-67 43 -159 43h-72v80zM1282 1485h96l-925 -1553h-99zM1315 205h-430v80l436 581h90v-581h139v-80h-139v-205h-96v205zM1315 285v442h-4l-332 -442h336z" />
    <glyph glyph-name="questiondown" unicode="&#xbf;" horiz-adv-x="1099" 
d="M991 59q0 -219 -123 -349q-123 -129 -342 -130q-173 0 -295 104t-120 275q0 113 50 193q51 80 111 138t106 102q70 66 88 136q9 37 13 177h129q4 -179 -51 -274q-42 -73 -180 -200q-137 -127 -137 -257t86 -207q86 -78 188 -78q260 0 330 225q20 68 18 145h129zM629 840
h-172v217h172v-217z" />
    <glyph glyph-name="Agrave" unicode="&#xc0;" horiz-adv-x="1290" 
d="M575 1462h156l574 -1462h-150l-178 455h-666l-176 -455h-147zM354 573h576l-283 750zM393 1868h160l215 -289h-104z" />
    <glyph glyph-name="Aacute" unicode="&#xc1;" horiz-adv-x="1290" 
d="M575 1462h156l574 -1462h-150l-178 455h-666l-176 -455h-147zM354 573h576l-283 750zM629 1579h-105l215 289h160z" />
    <glyph glyph-name="Acircumflex" unicode="&#xc2;" horiz-adv-x="1290" 
d="M575 1462h156l574 -1462h-150l-178 455h-666l-176 -455h-147zM354 573h576l-283 750zM950 1579h-133l-176 209l-180 -209h-119l233 289h142z" />
    <glyph glyph-name="Atilde" unicode="&#xc3;" horiz-adv-x="1290" 
d="M575 1462h156l574 -1462h-150l-178 455h-666l-176 -455h-147zM354 573h576l-283 750zM403 1620h-79q9 80 57 137q48 58 117 59q69 0 133 -30q63 -30 93 -44t58 -16q78 0 107 99h78q-22 -129 -98 -171t-160 -9q-39 15 -102 47q-63 33 -103 32q-39 0 -70 -26
q-31 -27 -31 -78z" />
    <glyph glyph-name="Adieresis" unicode="&#xc4;" horiz-adv-x="1290" 
d="M575 1462h156l574 -1462h-150l-178 455h-666l-176 -455h-147zM354 573h576l-283 750zM758 1614v207h139v-207h-139zM395 1614v207h140v-207h-140z" />
    <glyph glyph-name="Aring" unicode="&#xc5;" horiz-adv-x="1290" 
d="M575 1462h156l574 -1462h-150l-178 455h-666l-176 -455h-147zM354 573h576l-283 750zM802 1916q64 -64 64 -156t-63 -154t-156 -63q-92 -1 -155 64q-64 65 -64 156t64 154t156 63q90 0 154 -64zM508 1761q0 -59 40 -99t99 -40t99 40t40 99t-40 99t-99 41q-59 -1 -99 -41
t-40 -99z" />
    <glyph glyph-name="AE" unicode="&#xc6;" horiz-adv-x="1857" 
d="M1051 119h759v-119h-899v463h-530l-238 -463h-155l764 1462h1050v-119h-751v-528h704v-119h-704v-577zM911 582v761h-82l-387 -761h469z" />
    <glyph glyph-name="Ccedilla" unicode="&#xc7;" horiz-adv-x="1441" 
d="M689 -340q128 0 128 88q-1 76 -105 78q-52 0 -87 -16l-33 30l104 135q-294 23 -464 248q-154 204 -154 516t172 524q86 105 216 167t302 63q219 0 389 -126t199 -347h-139q-36 167 -162 261q-126 95 -279 94q-282 -2 -429 -203q-130 -177 -130 -440t130 -442
q149 -202 421 -202q196 0 322 134t147 335h139q-28 -272 -190 -429t-418 -157h-2l-68 -88q154 25 214 -51q24 -29 24 -76q0 -87 -68 -131q-68 -45 -138 -45q-128 0 -212 43l29 66q79 -29 142 -29z" />
    <glyph glyph-name="Egrave" unicode="&#xc8;" horiz-adv-x="1214" 
d="M147 1462h1010v-119h-870v-528h815v-119h-815v-577h880v-119h-1020v1462zM354 1868h160l215 -289h-104z" />
    <glyph glyph-name="Eacute" unicode="&#xc9;" horiz-adv-x="1214" 
d="M147 1462h1010v-119h-870v-528h815v-119h-815v-577h880v-119h-1020v1462zM590 1579h-105l215 289h160z" />
    <glyph glyph-name="Ecircumflex" unicode="&#xca;" horiz-adv-x="1214" 
d="M147 1462h1010v-119h-870v-528h815v-119h-815v-577h880v-119h-1020v1462zM911 1579h-133l-176 209l-180 -209h-119l234 289h141z" />
    <glyph glyph-name="Edieresis" unicode="&#xcb;" horiz-adv-x="1214" 
d="M147 1462h1010v-119h-870v-528h815v-119h-815v-577h880v-119h-1020v1462zM719 1614v207h139v-207h-139zM356 1614v207h140v-207h-140z" />
    <glyph glyph-name="Igrave" unicode="&#xcc;" horiz-adv-x="454" 
d="M158 1462h139v-1462h-139v1462zM-23 1868h158l215 -289h-104z" />
    <glyph glyph-name="Iacute" unicode="&#xcd;" horiz-adv-x="454" 
d="M158 1462h139v-1462h-139v1462zM211 1579h-105l216 289h159z" />
    <glyph glyph-name="Icircumflex" unicode="&#xce;" horiz-adv-x="454" 
d="M158 1462h139v-1462h-139v1462zM532 1579h-133l-176 209l-180 -209h-117l232 289h141z" />
    <glyph glyph-name="Idieresis" unicode="&#xcf;" horiz-adv-x="454" 
d="M158 1462h139v-1462h-139v1462zM340 1614v207h139v-207h-139zM-20 1614v207h137v-207h-137z" />
    <glyph glyph-name="Eth" unicode="&#xd0;" horiz-adv-x="1402" 
d="M287 805h483v-92h-483v-594h297q318 1 460 143t142 470t-144 470q-144 143 -458 141h-297v-538zM147 1462h506q334 -8 503 -187t169 -544t-169 -544t-503 -187h-506v713h-147v92h147v657z" />
    <glyph glyph-name="Ntilde" unicode="&#xd1;" horiz-adv-x="1441" 
d="M145 1462h156l852 -1237h4v1237h139v-1462h-155l-852 1237h-4v-1237h-140v1462zM580 1724q-39 0 -70 -26t-31 -78h-80q8 78 57 137q49 58 118 59q69 0 133 -30q63 -30 93 -44t58 -16q78 0 107 99h77q-22 -130 -106 -176q-84 -47 -225 28q-92 47 -131 47z" />
    <glyph glyph-name="Ograve" unicode="&#xd2;" horiz-adv-x="1517" 
d="M760 1493q329 0 516 -230q172 -210 172 -532t-172 -530q-189 -228 -516 -230q-172 1 -302 63t-216 166q-172 209 -172 530t172 533q86 105 216 167t302 63zM339 1172q-130 -177 -130 -440t130 -442q149 -202 421 -202t419 202q130 177 130 441t-130 441
q-149 202 -421 202t-419 -202zM506 1868h160l215 -289h-105z" />
    <glyph glyph-name="Oacute" unicode="&#xd3;" horiz-adv-x="1517" 
d="M760 1493q329 0 516 -230q172 -210 172 -532t-172 -530q-189 -228 -516 -230q-172 1 -302 63t-216 166q-172 209 -172 530t172 533q86 105 216 167t302 63zM339 1172q-130 -177 -130 -440t130 -442q149 -202 421 -202t419 202q130 177 130 441t-130 441
q-149 202 -421 202t-419 -202zM741 1579h-104l215 289h160z" />
    <glyph glyph-name="Ocircumflex" unicode="&#xd4;" horiz-adv-x="1517" 
d="M760 1493q329 0 516 -230q172 -210 172 -532t-172 -530q-189 -228 -516 -230q-172 1 -302 63t-216 166q-172 209 -172 530t172 533q86 105 216 167t302 63zM339 1172q-130 -177 -130 -440t130 -442q149 -202 421 -202t419 202q130 177 130 441t-130 441
q-149 202 -421 202t-419 -202zM1063 1579h-133l-176 209l-181 -209h-118l233 289h141z" />
    <glyph glyph-name="Otilde" unicode="&#xd5;" horiz-adv-x="1517" 
d="M760 1493q329 0 516 -230q172 -210 172 -532t-172 -530q-189 -228 -516 -230q-172 1 -302 63t-216 166q-172 209 -172 530t172 533q86 105 216 167t302 63zM339 1172q-130 -177 -130 -440t130 -442q149 -202 421 -202t419 202q130 177 130 441t-130 441
q-149 202 -421 202t-419 -202zM617 1724q-39 0 -70 -26t-31 -78h-80q8 78 57 137q49 58 117 59q68 0 132 -30q65 -30 95 -44t58 -16q79 0 106 99h78q-22 -130 -106 -176q-84 -47 -225 28q-92 47 -131 47z" />
    <glyph glyph-name="Odieresis" unicode="&#xd6;" horiz-adv-x="1517" 
d="M760 1493q329 0 516 -230q172 -210 172 -532t-172 -530q-189 -228 -516 -230q-172 1 -302 63t-216 166q-172 209 -172 530t172 533q86 105 216 167t302 63zM339 1172q-130 -177 -130 -440t130 -442q149 -202 421 -202t419 202q130 177 130 441t-130 441
q-149 202 -421 202t-419 -202zM870 1614v207h140v-207h-140zM508 1614v207h139v-207h-139z" />
    <glyph glyph-name="multiply" unicode="&#xd7;" horiz-adv-x="1228" 
d="M152 901l75 76l387 -387l387 387l76 -76l-387 -387l387 -387l-76 -76l-387 385l-387 -385l-75 76l385 387z" />
    <glyph glyph-name="Oslash" unicode="&#xd8;" horiz-adv-x="1517" 
d="M1179 290q130 177 130 437q0 261 -121 430l-813 -907q145 -162 385 -162q272 0 419 202zM339 1172q-130 -177 -130 -435t119 -430l815 907q-147 160 -383 160q-274 0 -421 -202zM1280 1260q168 -203 168 -527t-172 -532q-189 -228 -500 -229q-312 -1 -489 180l-156 -175
l-55 50l162 180q-168 207 -168 526q0 318 172 530q86 105 216 167t302 63q291 0 471 -180l145 160l54 -48z" />
    <glyph glyph-name="Ugrave" unicode="&#xd9;" horiz-adv-x="1402" 
d="M133 1462h139v-905q0 -362 248 -443q80 -26 181 -26q211 0 321 112t108 357v905h140v-936q0 -243 -140 -399t-430 -156q-289 0 -435 164q-132 145 -132 391v936zM449 1868h159l215 -289h-104z" />
    <glyph glyph-name="Uacute" unicode="&#xda;" horiz-adv-x="1402" 
d="M133 1462h139v-905q0 -362 248 -443q80 -26 181 -26q211 0 321 112t108 357v905h140v-936q0 -243 -140 -399t-430 -156q-289 0 -435 164q-132 145 -132 391v936zM684 1579h-104l215 289h159z" />
    <glyph glyph-name="Ucircumflex" unicode="&#xdb;" horiz-adv-x="1402" 
d="M133 1462h139v-905q0 -362 248 -443q80 -26 181 -26q211 0 321 112t108 357v905h140v-936q0 -243 -140 -399t-430 -156q-289 0 -435 164q-132 145 -132 391v936zM1006 1579h-134l-176 209l-180 -209h-119l234 289h141z" />
    <glyph glyph-name="Udieresis" unicode="&#xdc;" horiz-adv-x="1402" 
d="M133 1462h139v-905q0 -362 248 -443q80 -26 181 -26q211 0 321 112t108 357v905h140v-936q0 -243 -140 -399t-430 -156q-289 0 -435 164q-132 145 -132 391v936zM813 1614v207h139v-207h-139zM451 1614v207h139v-207h-139z" />
    <glyph glyph-name="Yacute" unicode="&#xdd;" horiz-adv-x="1251" 
d="M694 0h-139v602l-573 860h163l482 -741l479 741h166l-578 -860v-602zM608 1579h-104l215 289h160z" />
    <glyph glyph-name="Thorn" unicode="&#xde;" horiz-adv-x="1290" 
d="M147 1462h140v-239h510q199 0 316 -111q118 -111 118 -307q0 -195 -118 -307q-118 -111 -316 -111h-510v-387h-140v1462zM287 506h479q145 0 235 74q91 74 91 226t-90 224q-90 74 -236 74h-479v-598z" />
    <glyph glyph-name="germandbls" unicode="&#xdf;" horiz-adv-x="1099" 
d="M879 420q0 282 -255 321q-79 12 -173 13v108q245 0 324 135q30 51 30 119q0 122 -78 195t-212 73t-198 -75q-63 -76 -63 -224v-1085h-129v1096q-1 195 109 296t289 101t295 -96t116 -264q0 -111 -60 -197t-172 -111v-4q142 -12 223 -119q81 -108 82 -241
q2 -233 -124 -353q-125 -120 -330 -122h-51q-23 0 -51 4v110q51 -8 105 -8q133 0 228 83q95 82 95 245z" />
    <glyph glyph-name="agrave" unicode="&#xe0;" 
d="M799 578h-4q-16 -31 -104 -46q-87 -16 -174 -27q-322 -41 -322 -203q1 -107 69 -166q69 -58 154 -58q169 0 275 91t106 241v168zM111 733q23 354 420 354t397 -339v-562q0 -78 76 -77q23 0 40 8v-109q-46 -8 -89 -8q-122 0 -141 110q-5 34 -5 74h-4q-78 -114 -159 -163
q-80 -49 -226 -50q-245 0 -327 169q-27 58 -27 154t49 158t130 95t182 46t174 21t104 14q92 19 93 126q2 185 -168 216q-50 9 -108 9q-122 0 -200 -58t-82 -188h-129zM279 1493h159l215 -289h-104z" />
    <glyph glyph-name="aacute" unicode="&#xe1;" 
d="M799 578h-4q-16 -31 -104 -46q-87 -16 -174 -27q-322 -41 -322 -203q1 -107 69 -166q69 -58 154 -58q169 0 275 91t106 241v168zM111 733q23 354 420 354t397 -339v-562q0 -78 76 -77q23 0 40 8v-109q-46 -8 -89 -8q-122 0 -141 110q-5 34 -5 74h-4q-78 -114 -159 -163
q-80 -49 -226 -50q-245 0 -327 169q-27 58 -27 154t49 158t130 95t182 46t174 21t104 14q92 19 93 126q2 185 -168 216q-50 9 -108 9q-122 0 -200 -58t-82 -188h-129zM514 1204h-104l215 289h159z" />
    <glyph glyph-name="acircumflex" unicode="&#xe2;" 
d="M799 578h-4q-16 -31 -104 -46q-87 -16 -174 -27q-322 -41 -322 -203q1 -107 69 -166q69 -58 154 -58q169 0 275 91t106 241v168zM111 733q23 354 420 354t397 -339v-562q0 -78 76 -77q23 0 40 8v-109q-46 -8 -89 -8q-122 0 -141 110q-5 34 -5 74h-4q-78 -114 -159 -163
q-80 -49 -226 -50q-245 0 -327 169q-27 58 -27 154t49 158t130 95t182 46t174 21t104 14q92 19 93 126q2 185 -168 216q-50 9 -108 9q-122 0 -200 -58t-82 -188h-129zM836 1204h-134l-176 209l-180 -209h-119l234 289h141z" />
    <glyph glyph-name="atilde" unicode="&#xe3;" 
d="M799 578h-4q-16 -31 -104 -46q-87 -16 -174 -27q-322 -41 -322 -203q1 -107 69 -166q69 -58 154 -58q169 0 275 91t106 241v168zM111 733q23 354 420 354t397 -339v-562q0 -78 76 -77q23 0 40 8v-109q-46 -8 -89 -8q-122 0 -141 110q-5 34 -5 74h-4q-78 -114 -159 -163
q-80 -49 -226 -50q-245 0 -327 169q-27 58 -27 154t49 158t130 95t182 46t174 21t104 14q92 19 93 126q2 185 -168 216q-50 9 -108 9q-122 0 -200 -58t-82 -188h-129zM668 1352q77 0 106 98h78q-22 -131 -107 -177q-84 -46 -225 30q-89 46 -129 46q-41 1 -72 -26t-30 -78
h-80q9 80 57 137q48 58 116 59t133 -29t95 -46q30 -14 58 -14z" />
    <glyph glyph-name="adieresis" unicode="&#xe4;" 
d="M799 578h-4q-16 -31 -104 -46q-87 -16 -174 -27q-322 -41 -322 -203q1 -107 69 -166q69 -58 154 -58q169 0 275 91t106 241v168zM111 733q23 354 420 354t397 -339v-562q0 -78 76 -77q23 0 40 8v-109q-46 -8 -89 -8q-122 0 -141 110q-5 34 -5 74h-4q-78 -114 -159 -163
q-80 -49 -226 -50q-245 0 -327 169q-27 58 -27 154t49 158t130 95t182 46t174 21t104 14q92 19 93 126q2 185 -168 216q-50 9 -108 9q-122 0 -200 -58t-82 -188h-129zM643 1239v207h139v-207h-139zM281 1239v207h139v-207h-139z" />
    <glyph glyph-name="aring" unicode="&#xe5;" 
d="M799 578h-4q-16 -31 -104 -46q-87 -16 -174 -27q-322 -41 -322 -203q1 -107 69 -166q69 -58 154 -58q169 0 275 91t106 241v168zM111 733q23 354 420 354t397 -339v-562q0 -78 76 -77q23 0 40 8v-109q-46 -8 -89 -8q-122 0 -141 110q-5 34 -5 74h-4q-78 -114 -159 -163
q-80 -49 -226 -50q-245 0 -327 169q-27 58 -27 154t49 158t130 95t182 46t174 21t104 14q92 19 93 126q2 185 -168 216q-50 9 -108 9q-122 0 -200 -58t-82 -188h-129zM313 1386q0 90 64 154t154 65q91 1 155 -63t65 -154q1 -91 -63 -155t-156 -65t-155 64q-64 64 -64 154z
M393 1386q0 -59 40 -99t99 -40t100 40q40 40 40 99q0 60 -40 100t-100 40t-99 -40q-40 -40 -40 -100z" />
    <glyph glyph-name="ae" unicode="&#xe6;" horiz-adv-x="1781" 
d="M1593 602q0 152 -93 265q-93 112 -243 112t-243 -112q-92 -112 -86 -265h665zM799 578h-4q-16 -31 -104 -46q-87 -16 -174 -27q-322 -41 -322 -203q1 -107 69 -166q69 -58 154 -58q169 0 275 91t106 241v168zM522 979q-122 0 -200 -58t-82 -188h-129q23 354 428 354
q216 0 306 -108q36 -43 46 -111h4q38 106 141 162q103 57 232 57t216 -49q242 -136 238 -544h-794q-13 -180 78 -298t266 -118q254 0 313 264h129q-41 -180 -158 -275t-303 -96q-293 0 -387 265h-4q-22 -125 -163 -199q-120 -64 -279 -66q-245 0 -327 169q-27 58 -27 154
t49 158t130 95t182 46t174 21t104 14q92 19 93 126q2 185 -168 216q-50 9 -108 9z" />
    <glyph glyph-name="ccedilla" unicode="&#xe7;" 
d="M748 -244q0 -87 -68 -131q-69 -45 -138 -45q-128 0 -212 43l28 66q78 -29 142 -29q129 0 129 88q0 76 -105 78q-51 0 -88 -16l-33 30l105 135q-207 23 -324 180q-116 156 -115 384t134 388t366 160q170 0 288 -90t140 -272h-129q-58 254 -299 254q-174 0 -273 -136
t-98 -315q1 -180 99 -315t272 -135q120 0 208 86t100 215h129q-27 -193 -141 -298t-287 -110l-68 -88q154 25 214 -51q24 -29 24 -76z" />
    <glyph glyph-name="egrave" unicode="&#xe8;" 
d="M199 494q0 -263 190 -377q66 -39 158 -39q141 0 221 74t111 196h129q-41 -180 -151 -278t-310 -99q-241 0 -360 160t-118 392q1 233 113 389q126 175 365 175q238 0 363 -185q111 -164 102 -408h-813zM199 602h684q-4 152 -96 265q-92 112 -240 112t-240 -110
q-93 -111 -108 -267zM279 1493h159l215 -289h-104z" />
    <glyph glyph-name="eacute" unicode="&#xe9;" 
d="M199 494q0 -263 190 -377q66 -39 158 -39q141 0 221 74t111 196h129q-41 -180 -151 -278t-310 -99q-241 0 -360 160t-118 392q1 233 113 389q126 175 365 175q238 0 363 -185q111 -164 102 -408h-813zM199 602h684q-4 152 -96 265q-92 112 -240 112t-240 -110
q-93 -111 -108 -267zM514 1204h-104l215 289h159z" />
    <glyph glyph-name="ecircumflex" unicode="&#xea;" 
d="M199 494q0 -263 190 -377q66 -39 158 -39q141 0 221 74t111 196h129q-41 -180 -151 -278t-310 -99q-241 0 -360 160t-118 392q1 233 113 389q126 175 365 175q238 0 363 -185q111 -164 102 -408h-813zM199 602h684q-4 152 -96 265q-92 112 -240 112t-240 -110
q-93 -111 -108 -267zM836 1204h-134l-176 209l-180 -209h-119l234 289h141z" />
    <glyph glyph-name="edieresis" unicode="&#xeb;" 
d="M199 494q0 -263 190 -377q66 -39 158 -39q141 0 221 74t111 196h129q-41 -180 -151 -278t-310 -99q-241 0 -360 160t-118 392q1 233 113 389q126 175 365 175q238 0 363 -185q111 -164 102 -408h-813zM199 602h684q-4 152 -96 265q-92 112 -240 112t-240 -110
q-93 -111 -108 -267zM643 1239v207h139v-207h-139zM281 1239v207h139v-207h-139z" />
    <glyph glyph-name="igrave" unicode="&#xec;" horiz-adv-x="378" 
d="M125 0v1057h129v-1057h-129zM-61 1493h157l215 -289h-104z" />
    <glyph glyph-name="iacute" unicode="&#xed;" horiz-adv-x="378" 
d="M125 0v1057h129v-1057h-129zM172 1204h-104l215 289h159z" />
    <glyph glyph-name="icircumflex" unicode="&#xee;" horiz-adv-x="378" 
d="M125 0v1057h129v-1057h-129zM494 1204h-134l-176 209l-180 -209h-117l232 289h141z" />
    <glyph glyph-name="idieresis" unicode="&#xef;" horiz-adv-x="378" 
d="M125 0v1057h129v-1057h-129zM301 1239v207h139v-207h-139zM-59 1239v207h137v-207h-137z" />
    <glyph glyph-name="eth" unicode="&#xf0;" horiz-adv-x="1138" 
d="M199 508q0 -290 197 -394q69 -36 162 -36t162 32q137 63 184 228q24 80 24 166q0 178 -90 301t-275 123t-279 -125q-85 -110 -85 -295zM1057 528q0 -243 -128 -400t-371 -157t-366 152q-124 152 -123 381q1 230 130 381t341 151t287 -82h4q-95 182 -272 322l-215 -121
l-68 66l205 114q-117 77 -190 113l74 72q134 -73 213 -131l233 131l68 -66l-224 -125q402 -327 402 -801z" />
    <glyph glyph-name="ntilde" unicode="&#xf1;" horiz-adv-x="1099" 
d="M121 1057h129v-183h4q37 96 131 154t206 59q311 0 370 -237q18 -76 18 -170v-680h-129v659q0 320 -268 320q-149 0 -239 -102q-91 -102 -93 -261v-616h-129v1057zM686 1352q78 0 107 98h77q-22 -130 -106 -177q-86 -47 -225 30q-89 46 -129 46q-41 1 -72 -26t-31 -78h-80
q8 78 57 137q49 58 118 59t133 -29q63 -30 93 -46q30 -14 58 -14z" />
    <glyph glyph-name="ograve" unicode="&#xf2;" horiz-adv-x="1138" 
d="M940 922q129 -156 129 -394t-132 -397q-131 -160 -367 -160q-235 0 -369 161q-133 161 -132 398t134 397t364 160q232 0 373 -165zM570 78q92 0 161 39q137 76 185 247q24 80 24 164q0 177 -98 314t-273 137q-91 0 -161 -39q-135 -76 -185 -243q-49 -167 0 -335
q49 -169 185 -245q70 -39 162 -39zM317 1493h160l215 -289h-104z" />
    <glyph glyph-name="oacute" unicode="&#xf3;" horiz-adv-x="1138" 
d="M940 922q129 -156 129 -394t-132 -397q-131 -160 -367 -160q-235 0 -369 161q-133 161 -132 398t134 397t364 160q232 0 373 -165zM570 78q92 0 161 39q137 76 185 247q24 80 24 164q0 177 -98 314t-273 137q-91 0 -161 -39q-135 -76 -185 -243q-49 -167 0 -335
q49 -169 185 -245q70 -39 162 -39zM553 1204h-104l215 289h159z" />
    <glyph glyph-name="ocircumflex" unicode="&#xf4;" horiz-adv-x="1138" 
d="M940 922q129 -156 129 -394t-132 -397q-131 -160 -367 -160q-235 0 -369 161q-133 161 -132 398t134 397t364 160q232 0 373 -165zM570 78q92 0 161 39q137 76 185 247q24 80 24 164q0 177 -98 314t-273 137q-91 0 -161 -39q-135 -76 -185 -243q-49 -167 0 -335
q49 -169 185 -245q70 -39 162 -39zM874 1204h-133l-176 209l-180 -209h-119l234 289h141z" />
    <glyph glyph-name="otilde" unicode="&#xf5;" horiz-adv-x="1138" 
d="M940 922q129 -156 129 -394t-132 -397q-131 -160 -367 -160q-235 0 -369 161q-133 161 -132 398t134 397t364 160q232 0 373 -165zM570 78q92 0 161 39q137 76 185 247q24 80 24 164q0 177 -98 314t-273 137q-91 0 -161 -39q-135 -76 -185 -243q-49 -167 0 -335
q49 -169 185 -245q70 -39 162 -39zM707 1352q77 0 106 98h78q-22 -131 -107 -177q-84 -46 -225 30q-89 46 -129 46q-41 1 -72 -26t-30 -78h-80q9 80 57 137q48 58 116 59t133 -29q64 -30 94 -46q30 -14 59 -14z" />
    <glyph glyph-name="odieresis" unicode="&#xf6;" horiz-adv-x="1138" 
d="M940 922q129 -156 129 -394t-132 -397q-131 -160 -367 -160q-235 0 -369 161q-133 161 -132 398t134 397t364 160q232 0 373 -165zM570 78q92 0 161 39q137 76 185 247q24 80 24 164q0 177 -98 314t-273 137q-91 0 -161 -39q-135 -76 -185 -243q-49 -167 0 -335
q49 -169 185 -245q70 -39 162 -39zM682 1239v207h139v-207h-139zM319 1239v207h140v-207h-140z" />
    <glyph glyph-name="divide" unicode="&#xf7;" horiz-adv-x="1228" 
d="M100 461v108h1030v-108h-1030zM500 928q0 47 34 81q34 33 80 33t81 -34q34 -34 34 -78q0 -45 -34 -81t-80 -36q-47 0 -81 34t-34 81zM500 102q0 47 34 81t80 34t81 -34q34 -34 34 -79q0 -46 -34 -80t-80 -34q-47 0 -81 32t-34 80z" />
    <glyph glyph-name="oslash" unicode="&#xf8;" horiz-adv-x="1138" 
d="M831 856q-101 123 -268 123q-168 0 -267 -136t-98 -306q1 -171 74 -285zM309 199q98 -121 267 -121q168 0 266 134t98 307q0 172 -72 284zM958 901q111 -157 111 -384q0 -226 -132 -386t-358 -160q-225 0 -354 138l-121 -129l-45 38l125 138q-116 151 -115 381t134 390
t359 160t356 -139l106 115l45 -41z" />
    <glyph glyph-name="ugrave" unicode="&#xf9;" horiz-adv-x="1099" 
d="M121 371v686h129v-688q4 -143 66 -217t217 -74t241 131q74 112 76 293v555h129v-1057h-119v190h-4q-51 -106 -148 -162t-216 -57q-371 0 -371 400zM297 1493h160l215 -289h-105z" />
    <glyph glyph-name="uacute" unicode="&#xfa;" horiz-adv-x="1099" 
d="M121 371v686h129v-688q4 -143 66 -217t217 -74t241 131q74 112 76 293v555h129v-1057h-119v190h-4q-51 -106 -148 -162t-216 -57q-371 0 -371 400zM532 1204h-104l215 289h160z" />
    <glyph glyph-name="ucircumflex" unicode="&#xfb;" horiz-adv-x="1099" 
d="M121 371v686h129v-688q4 -143 66 -217t217 -74t241 131q74 112 76 293v555h129v-1057h-119v190h-4q-51 -106 -148 -162t-216 -57q-371 0 -371 400zM854 1204h-133l-176 209l-180 -209h-119l233 289h142z" />
    <glyph glyph-name="udieresis" unicode="&#xfc;" horiz-adv-x="1099" 
d="M121 371v686h129v-688q4 -143 66 -217t217 -74t241 131q74 112 76 293v555h129v-1057h-119v190h-4q-51 -106 -148 -162t-216 -57q-371 0 -371 400zM662 1239v207h139v-207h-139zM299 1239v207h139v-207h-139z" />
    <glyph glyph-name="yacute" unicode="&#xfd;" horiz-adv-x="948" 
d="M206 -281q94 0 144 99q14 31 31 67l45 119l-422 1053h137l348 -901l326 901h129l-459 -1217q-59 -138 -98 -172q-39 -35 -79 -46t-112 -9t-87 8v109q63 -11 97 -11zM457 1204h-105l215 289h160z" />
    <glyph glyph-name="thorn" unicode="&#xfe;" horiz-adv-x="1175" 
d="M969 528q0 185 -88 318t-267 133t-279 -143q-83 -119 -83 -308q0 -298 198 -410q71 -40 168 -40q96 0 162 40q129 79 169 248q20 80 20 162zM123 1462h129v-606h4q38 107 139 169t225 62q232 0 355 -159q123 -160 123 -400t-122 -398q-122 -159 -353 -159
q-192 0 -309 129q-38 43 -58 101h-4v-590h-129v1851z" />
    <glyph glyph-name="ydieresis" unicode="&#xff;" horiz-adv-x="948" 
d="M206 -281q94 0 144 99q14 31 31 67l45 119l-422 1053h137l348 -901l326 901h129l-459 -1217q-59 -138 -98 -172q-39 -35 -79 -46t-112 -9t-87 8v109q63 -11 97 -11zM586 1239v207h139v-207h-139zM223 1239v207h139v-207h-139z" />
    <glyph glyph-name="Amacron" unicode="&#x100;" horiz-adv-x="1290" 
d="M309 1657h672v-92h-672v92zM575 1462h156l574 -1462h-150l-178 455h-666l-176 -455h-147zM354 573h576l-283 750z" />
    <glyph glyph-name="amacron" unicode="&#x101;" 
d="M219 1290h672v-92h-672v92zM799 578h-4q-16 -31 -104 -46q-87 -16 -174 -27q-322 -41 -322 -203q1 -107 69 -166q69 -58 154 -58q169 0 275 91t106 241v168zM111 733q23 354 420 354t397 -339v-562q0 -78 76 -77q23 0 40 8v-109q-46 -8 -89 -8q-122 0 -141 110
q-5 34 -5 74h-4q-78 -114 -159 -163q-80 -49 -226 -50q-245 0 -327 169q-27 58 -27 154t49 158t130 95t182 46t174 21t104 14q92 19 93 126q2 185 -168 216q-50 9 -108 9q-122 0 -200 -58t-82 -188h-129z" />
    <glyph glyph-name="Abreve" unicode="&#x102;" horiz-adv-x="1290" 
d="M453 1752q53 -95 207 -95q58 0 122 44q63 44 76 124h80q-16 -123 -95 -192t-203 -69t-201 68t-87 193h80q2 -41 21 -73zM575 1462h156l574 -1462h-150l-178 455h-666l-176 -455h-147zM354 573h576l-283 750z" />
    <glyph glyph-name="abreve" unicode="&#x103;" 
d="M570 1290q58 0 122 44q63 44 76 124h80q-16 -124 -95 -192t-203 -68t-201 68t-87 192h80q4 -81 68 -126q55 -42 160 -42zM799 578h-4q-16 -31 -104 -46q-87 -16 -174 -27q-322 -41 -322 -203q1 -107 69 -166q69 -58 154 -58q169 0 275 91t106 241v168zM111 733
q23 354 420 354t397 -339v-562q0 -78 76 -77q23 0 40 8v-109q-46 -8 -89 -8q-122 0 -141 110q-5 34 -5 74h-4q-78 -114 -159 -163q-80 -49 -226 -50q-245 0 -327 169q-27 58 -27 154t49 158t130 95t182 46t174 21t104 14q92 19 93 126q2 185 -168 216q-50 9 -108 9
q-122 0 -200 -58t-82 -188h-129z" />
    <glyph glyph-name="Aogonek" unicode="&#x104;" horiz-adv-x="1290" 
d="M930 573l-283 750l-293 -750h576zM972 -383q-42 47 -42 121t108 180q45 39 117 82l-178 455h-666l-176 -455h-147l587 1462h156l574 -1462h-70q-144 -115 -169 -201q-7 -27 -7 -65q-1 -38 27 -61q28 -24 63 -23q67 0 113 84l59 -27q-81 -137 -194 -137t-155 47z" />
    <glyph glyph-name="aogonek" unicode="&#x105;" 
d="M444 78q60 0 128 22t117 66q110 95 110 244v168h-4q-16 -31 -104 -46q-87 -16 -174 -27q-322 -41 -322 -203q0 -107 71 -168q66 -56 178 -56zM111 733q23 354 420 354t397 -339v-562q0 -78 76 -77q23 0 40 8v-109q-46 -8 -53 -8q-144 -115 -169 -201q-7 -27 -7 -65
t28 -61q28 -24 62 -23q67 0 113 84l59 -27q-81 -137 -193 -137q-198 0 -198 168q0 76 109 180q45 41 120 84q-55 11 -80 51q-26 40 -26 131h-4q-78 -114 -159 -163q-80 -49 -226 -50q-245 0 -327 169q-27 58 -27 154t49 158t130 95t182 46t174 21t104 14q92 19 93 126
q2 185 -168 216q-50 9 -108 9q-122 0 -200 -58t-82 -188h-129z" />
    <glyph glyph-name="Cacute" unicode="&#x106;" horiz-adv-x="1441" 
d="M655 1610l215 288h160l-270 -288h-105zM347 1172q-130 -177 -130 -440t130 -442q149 -202 421 -202q196 0 322 134t147 335h139q-28 -272 -190 -429t-418 -157q-172 1 -302 63t-216 166q-172 209 -172 530t172 533q86 105 216 167t302 63q219 0 389 -126t199 -347h-139
q-36 167 -162 261q-126 95 -279 94q-283 -2 -429 -203z" />
    <glyph glyph-name="cacute" unicode="&#x107;" 
d="M426 1204l215 289h160l-271 -289h-104zM569 -29q-234 0 -368 161q-133 161 -132 398t134 397t366 160q170 0 288 -90t140 -272h-129q-58 254 -299 254q-174 0 -273 -136t-98 -315q1 -180 99 -315t272 -135q120 0 208 86t100 215h129q-27 -193 -142 -301t-295 -107z" />
    <glyph glyph-name="Ccircumflex" unicode="&#x108;" horiz-adv-x="1441" 
d="M897 1595l-176 209l-180 -209h-117l231 289h142l233 -289h-133zM347 1172q-130 -177 -130 -440t130 -442q149 -202 421 -202q196 0 322 134t147 335h139q-28 -272 -190 -429t-418 -157q-172 1 -302 63t-216 166q-172 209 -172 530t172 533q86 105 216 167t302 63
q219 0 389 -126t199 -347h-139q-36 167 -162 261q-126 95 -279 94q-283 -2 -429 -203z" />
    <glyph glyph-name="ccircumflex" unicode="&#x109;" 
d="M707 1198l-177 209l-180 -209h-117l232 289h141l234 -289h-133zM569 -29q-234 0 -368 161q-133 161 -132 398t134 397t366 160q170 0 288 -90t140 -272h-129q-58 254 -299 254q-174 0 -273 -136t-98 -315q1 -180 99 -315t272 -135q120 0 208 86t100 215h129
q-27 -193 -142 -301t-295 -107z" />
    <glyph glyph-name="Cdotaccent" unicode="&#x10a;" horiz-adv-x="1441" 
d="M657 1802h140v-207h-140v207zM347 1172q-130 -177 -130 -440t130 -442q149 -202 421 -202q196 0 322 134t147 335h139q-28 -272 -190 -429t-418 -157q-172 1 -302 63t-216 166q-172 209 -172 530t172 533q86 105 216 167t302 63q219 0 389 -126t199 -347h-139
q-36 167 -162 261q-126 95 -279 94q-283 -2 -429 -203z" />
    <glyph glyph-name="cdotaccent" unicode="&#x10b;" 
d="M467 1405h139v-207h-139v207zM569 -29q-234 0 -368 161q-133 161 -132 398t134 397t366 160q170 0 288 -90t140 -272h-129q-58 254 -299 254q-174 0 -273 -136t-98 -315q1 -180 99 -315t272 -135q120 0 208 86t100 215h129q-27 -193 -142 -301t-295 -107z" />
    <glyph glyph-name="Ccaron" unicode="&#x10c;" horiz-adv-x="1441" 
d="M455 1890h131l176 -209l180 209h119l-234 -288h-141zM347 1172q-130 -177 -130 -440t130 -442q149 -202 421 -202q196 0 322 134t147 335h139q-28 -272 -190 -429t-418 -157q-172 1 -302 63t-216 166q-172 209 -172 530t172 533q86 105 216 167t302 63q219 0 389 -126
t199 -347h-139q-36 167 -162 261q-126 95 -279 94q-283 -2 -429 -203z" />
    <glyph glyph-name="ccaron" unicode="&#x10d;" 
d="M266 1487h131l176 -209l181 209h118l-233 -289h-141zM569 -29q-234 0 -368 161q-133 161 -132 398t134 397t366 160q170 0 288 -90t140 -272h-129q-58 254 -299 254q-174 0 -273 -136t-98 -315q1 -180 99 -315t272 -135q120 0 208 86t100 215h129q-27 -193 -142 -301
t-295 -107z" />
    <glyph glyph-name="Dcaron" unicode="&#x10e;" horiz-adv-x="1402" 
d="M313 1843h131l177 -209l180 209h119l-234 -289h-141zM287 119h297q318 1 460 143t142 470t-144 470q-144 143 -458 141h-297v-1224zM147 1462h506q334 -8 503 -187t169 -544t-169 -544t-503 -187h-506v1462z" />
    <glyph glyph-name="dcaron" unicode="&#x10f;" horiz-adv-x="1175" 
d="M207 528q0 -294 188 -410q66 -40 163 -40t168 40q194 109 196 409t-196 412q-71 40 -168 40q-177 0 -270 -143q-81 -122 -81 -308zM934 0v201h-4q-41 -104 -148 -166t-229 -63q-121 -1 -210 43q-174 86 -237 299q-29 101 -28 214q0 241 122 400t353 159q192 0 308 -131
q38 -43 59 -100h4v606h129v-1462h-119zM1346 1571q0 -148 -102 -238q-34 -29 -79 -41v88q41 13 69 75q28 61 26 116h-66v217h152v-217z" />
    <glyph glyph-name="Dcroat" unicode="&#x110;" horiz-adv-x="1402" 
d="M287 805h483v-92h-483v-594h297q318 1 460 143t142 470t-144 470q-144 143 -458 141h-297v-538zM147 1462h506q334 -8 503 -187t169 -544t-169 -544t-503 -187h-506v713h-147v92h147v657z" />
    <glyph glyph-name="dcroat" unicode="&#x111;" horiz-adv-x="1175" 
d="M207 528q0 -294 188 -410q66 -40 163 -40t168 40q194 109 196 409t-196 412q-71 40 -168 40q-177 0 -270 -143q-81 -122 -81 -308zM924 1319v143h129v-143h186v-109h-186v-1210h-119v201h-4q-41 -104 -148 -166t-229 -63q-121 -1 -210 43q-174 86 -237 299
q-29 101 -28 214q0 241 122 400t353 159q192 0 308 -131q38 -43 59 -100h4v354h-213v109h213z" />
    <glyph glyph-name="Emacron" unicode="&#x112;" horiz-adv-x="1214" 
d="M322 1657h671v-92h-671v92zM147 1462h1010v-119h-870v-528h815v-119h-815v-577h880v-119h-1020v1462z" />
    <glyph glyph-name="emacron" unicode="&#x113;" 
d="M207 1290h672v-92h-672v92zM199 494q0 -263 190 -377q66 -39 158 -39q141 0 221 74t111 196h129q-41 -180 -151 -278t-310 -99q-241 0 -360 160t-118 392q1 233 113 389q126 175 365 175q238 0 363 -185q111 -164 102 -408h-813zM199 602h684q-4 152 -96 265
q-92 112 -240 112t-240 -110q-93 -111 -108 -267z" />
    <glyph glyph-name="Ebreve" unicode="&#x114;" horiz-adv-x="1214" 
d="M673 1657q58 0 122 44q63 44 75 124h80q-16 -123 -95 -192t-203 -69t-200 68t-87 193h79q2 -41 21 -73q53 -95 208 -95zM147 1462h1010v-119h-870v-528h815v-119h-815v-577h880v-119h-1020v1462z" />
    <glyph glyph-name="ebreve" unicode="&#x115;" 
d="M558 1290q58 0 122 44q63 44 76 124h80q-16 -124 -96 -192t-202 -68q-124 0 -201 68t-87 192h80q2 -41 20 -73q53 -95 208 -95zM199 494q0 -263 190 -377q66 -39 158 -39q141 0 221 74t111 196h129q-41 -180 -151 -278t-310 -99q-241 0 -360 160t-118 392q1 233 113 389
q126 175 365 175q238 0 363 -185q111 -164 102 -408h-813zM199 602h684q-4 152 -96 265q-92 112 -240 112t-240 -110q-93 -111 -108 -267z" />
    <glyph glyph-name="Edotaccent" unicode="&#x116;" horiz-adv-x="1214" 
d="M588 1772h139v-207h-139v207zM147 1462h1010v-119h-870v-528h815v-119h-815v-577h880v-119h-1020v1462z" />
    <glyph glyph-name="edotaccent" unicode="&#x117;" 
d="M473 1405h139v-207h-139v207zM199 494q0 -263 190 -377q66 -39 158 -39q141 0 221 74t111 196h129q-41 -180 -151 -278t-310 -99q-241 0 -360 160t-118 392q1 233 113 389q126 175 365 175q238 0 363 -185q111 -164 102 -408h-813zM199 602h684q-4 152 -96 265
q-92 112 -240 112t-240 -110q-93 -111 -108 -267z" />
    <glyph glyph-name="Eogonek" unicode="&#x118;" horiz-adv-x="1214" 
d="M776 -262q0 76 109 180q45 39 116 82h-854v1462h1010v-119h-870v-528h815v-119h-815v-577h880v-119h-86q-144 -115 -169 -201q-7 -27 -7 -65t28 -61q28 -24 62 -23q67 0 113 84l59 -27q-81 -137 -193 -137q-198 0 -198 168z" />
    <glyph glyph-name="eogonek" unicode="&#x119;" 
d="M199 602h684q-4 152 -96 265q-92 112 -240 112t-240 -110q-93 -111 -108 -267zM346 -262q0 76 109 180q29 27 69 53q-112 4 -198 46q-170 83 -228 293t1 424t232 305q91 48 217 48t216 -51q174 -99 227 -324q25 -108 21 -218h-813q0 -263 190 -377q66 -39 158 -39
q141 0 221 74t111 196h129q-77 -337 -387 -373q-117 -102 -139 -176q-7 -27 -7 -65t28 -61q28 -24 62 -23q67 0 113 84l59 -27q-81 -137 -193 -137q-198 0 -198 168z" />
    <glyph glyph-name="Ecaron" unicode="&#x11a;" horiz-adv-x="1214" 
d="M383 1884h131l176 -209l180 209h119l-233 -289h-142zM147 1462h1010v-119h-870v-528h815v-119h-815v-577h880v-119h-1020v1462z" />
    <glyph glyph-name="ecaron" unicode="&#x11b;" 
d="M240 1518h131l176 -209l180 209h119l-234 -289h-141zM199 494q0 -263 190 -377q66 -39 158 -39q141 0 221 74t111 196h129q-41 -180 -151 -278t-310 -99q-241 0 -360 160t-118 392q1 233 113 389q126 175 365 175q238 0 363 -185q111 -164 102 -408h-813zM199 602h684
q-4 152 -96 265q-92 112 -240 112t-240 -110q-93 -111 -108 -267z" />
    <glyph glyph-name="Gcircumflex" unicode="&#x11c;" horiz-adv-x="1517" 
d="M907 1595l-176 209l-180 -209h-117l232 289h141l233 -289h-133zM1397 0h-101l-18 266h-4q-71 -150 -202 -221q-131 -72 -304 -73q-172 0 -302 62t-216 166q-172 209 -172 530t172 533q86 105 216 167t274 63q393 0 563 -274q55 -90 75 -211h-139q-13 137 -144 251
q-131 115 -327 115q-274 0 -421 -202q-130 -177 -130 -440t130 -442q149 -202 421 -202q238 0 374 149t132 388h-498v118h621v-743z" />
    <glyph glyph-name="gcircumflex" unicode="&#x11d;" horiz-adv-x="1138" 
d="M713 1198l-176 209l-181 -209h-116l231 289h141l234 -289h-133zM283 251q96 -130 258 -130t254 123t92 298t-85 306t-256 131t-265 -137q-82 -116 -82 -298t84 -293zM1016 86q0 -375 -251 -471q-89 -35 -193 -35q-200 0 -326 82t-137 238h129q27 -162 204 -200
q51 -11 105 -11q180 0 260 102t80 295v143h-4q-45 -98 -132 -157q-87 -60 -209 -60q-235 -1 -354 151q-120 151 -119 385t128 388q127 153 350 151q172 0 283 -131q34 -39 53 -82h4v183h129v-971z" />
    <glyph glyph-name="Gbreve" unicode="&#x11e;" horiz-adv-x="1517" 
d="M732 1595q-124 0 -201 68t-87 192h80q2 -41 21 -72q53 -95 207 -95q58 0 122 44q63 44 76 123h80q-16 -123 -95 -191t-203 -69zM1397 0h-101l-18 266h-4q-71 -150 -202 -221q-131 -72 -304 -73q-172 0 -302 62t-216 166q-172 209 -172 530t172 533q86 105 216 167t274 63
q393 0 563 -274q55 -90 75 -211h-139q-13 137 -144 251q-131 115 -327 115q-274 0 -421 -202q-130 -177 -130 -440t130 -442q149 -202 421 -202q238 0 374 149t132 388h-498v118h621v-743z" />
    <glyph glyph-name="gbreve" unicode="&#x11f;" horiz-adv-x="1138" 
d="M558 1290q58 0 122 44q63 44 76 124h80q-16 -124 -96 -192t-202 -68q-124 0 -201 68t-87 192h80q2 -41 20 -73q53 -95 208 -95zM283 251q96 -130 258 -130t254 123t92 298t-85 306t-256 131t-265 -137q-82 -116 -82 -298t84 -293zM1016 86q0 -375 -251 -471
q-89 -35 -193 -35q-200 0 -326 82t-137 238h129q27 -162 204 -200q51 -11 105 -11q180 0 260 102t80 295v143h-4q-45 -98 -132 -157q-87 -60 -209 -60q-235 -1 -354 151q-120 151 -119 385t128 388q127 153 350 151q172 0 283 -131q34 -39 53 -82h4v183h129v-971z" />
    <glyph glyph-name="Gdotaccent" unicode="&#x120;" horiz-adv-x="1517" 
d="M668 1802h139v-207h-139v207zM1397 0h-101l-18 266h-4q-71 -150 -202 -221q-131 -72 -304 -73q-172 0 -302 62t-216 166q-172 209 -172 530t172 533q86 105 216 167t274 63q393 0 563 -274q55 -90 75 -211h-139q-13 137 -144 251q-131 115 -327 115q-274 0 -421 -202
q-130 -177 -130 -440t130 -442q149 -202 421 -202q238 0 374 149t132 388h-498v118h621v-743z" />
    <glyph glyph-name="gdotaccent" unicode="&#x121;" horiz-adv-x="1138" 
d="M473 1405h139v-207h-139v207zM283 251q96 -130 258 -130t254 123t92 298t-85 306t-256 131t-265 -137q-82 -116 -82 -298t84 -293zM1016 86q0 -375 -251 -471q-89 -35 -193 -35q-200 0 -326 82t-137 238h129q27 -162 204 -200q51 -11 105 -11q180 0 260 102t80 295v143
h-4q-45 -98 -132 -157q-87 -60 -209 -60q-235 -1 -354 151q-120 151 -119 385t128 388q127 153 350 151q172 0 283 -131q34 -39 53 -82h4v183h129v-971z" />
    <glyph glyph-name="Gcommaaccent" unicode="&#x122;" horiz-adv-x="1517" 
d="M846 -334q0 -153 -102 -237q-34 -29 -80 -41v88q69 20 93 138q5 30 3 54h-86v217h172v-219zM740 1493q393 0 563 -274q55 -90 75 -211h-139q-13 137 -144 251q-131 115 -327 115q-274 0 -421 -202q-130 -177 -130 -440t130 -442q149 -202 421 -202q238 0 374 149t132 388
h-498v118h621v-743h-101l-18 266h-4q-71 -150 -202 -221q-131 -72 -304 -73q-172 0 -302 62t-216 166q-172 209 -172 530t172 533q86 105 216 167t274 63z" />
    <glyph glyph-name="gcommaaccent" unicode="&#x123;" horiz-adv-x="1138" 
d="M461 1532q0 153 102 237q35 29 80 41v-88q-46 -17 -73 -78q-27 -60 -23 -114h86v-217h-172v219zM283 251q96 -130 258 -130t254 123t92 298t-85 306t-256 131t-265 -137q-82 -116 -82 -298t84 -293zM1016 86q0 -375 -251 -471q-89 -35 -193 -35q-200 0 -326 82t-137 238
h129q27 -162 204 -200q51 -11 105 -11q180 0 260 102t80 295v143h-4q-45 -98 -132 -157q-87 -60 -209 -60q-235 -1 -354 151q-120 151 -119 385t128 388q127 153 350 151q172 0 283 -131q34 -39 53 -82h4v183h129v-971z" />
    <glyph glyph-name="Hcircumflex" unicode="&#x124;" horiz-adv-x="1441" 
d="M891 1565l-176 209l-180 -209h-117l231 288h142l233 -288h-133zM147 1462h140v-635h868v635h139v-1462h-139v709h-868v-709h-140v1462z" />
    <glyph glyph-name="hcircumflex" unicode="&#x125;" horiz-adv-x="1099" 
d="M719 1565l-176 209l-181 -209h-116l231 288h141l234 -288h-133zM121 1462h129v-588h4q37 96 131 154t206 59q311 0 370 -237q18 -76 18 -170v-680h-129v659q0 320 -268 320q-149 0 -239 -102q-91 -102 -93 -261v-616h-129v1462z" />
    <glyph glyph-name="Hbar" unicode="&#x126;" horiz-adv-x="1441" 
d="M1155 827v234h-868v-234h868zM147 1169v293h140v-293h868v293h139v-293h213v-108h-213v-1061h-139v709h-868v-709h-140v1061h-192v108h192z" />
    <glyph glyph-name="hbar" unicode="&#x127;" horiz-adv-x="1099" 
d="M121 1319v143h129v-143h190v-109h-190v-336h4q37 96 131 154t206 59q311 0 370 -237q18 -76 18 -170v-680h-129v659q0 320 -268 320q-149 0 -239 -102q-91 -102 -93 -261v-616h-129v1210h-209v109h209z" />
    <glyph glyph-name="Itilde" unicode="&#x128;" horiz-adv-x="454" 
d="M440 1592q-31 -17 -85 -17q-54 1 -114 33q-61 32 -91 46t-68 15q-37 0 -67 -27t-29 -77h-80q14 127 109 179q32 17 84 17q52 -1 114 -31q61 -30 91 -44t58 -15q78 0 107 98h78q-22 -131 -107 -177zM158 1462h139v-1462h-139v1462z" />
    <glyph glyph-name="itilde" unicode="&#x129;" horiz-adv-x="378" 
d="M324 1274q77 0 106 98h78q-22 -131 -107 -177q-31 -17 -85 -17t-141 46q-88 46 -128 47q-41 1 -71 -26t-29 -78h-80q14 128 109 180q32 17 87 17t202 -76q30 -14 59 -14zM125 0v1057h129v-1057h-129z" />
    <glyph glyph-name="Imacron" unicode="&#x12a;" horiz-adv-x="454" 
d="M-109 1657h672v-92h-672v92zM158 1462h139v-1462h-139v1462z" />
    <glyph glyph-name="imacron" unicode="&#x12b;" horiz-adv-x="378" 
d="M-147 1260h671v-93h-671v93zM125 0v1057h129v-1057h-129z" />
    <glyph glyph-name="Ibreve" unicode="&#x12c;" horiz-adv-x="454" 
d="M242 1657q58 0 123 44q63 44 75 124h80q-16 -123 -95 -192t-203 -69t-200 68t-88 193h80q2 -41 21 -73q53 -95 207 -95zM158 1462h139v-1462h-139v1462z" />
    <glyph glyph-name="ibreve" unicode="&#x12d;" horiz-adv-x="378" 
d="M206 1260q58 0 122 44q63 44 75 123h80q-16 -123 -95 -191t-203 -69q-125 0 -201 68t-86 192h79q2 -41 21 -72q53 -95 208 -95zM125 0v1057h129v-1057h-129z" />
    <glyph glyph-name="Iogonek" unicode="&#x12e;" horiz-adv-x="454" 
d="M228 -430q-112 0 -154 47t-43 123q0 76 109 177q44 40 117 83h40v4h45q-149 -116 -175 -205q-7 -27 -7 -65t28 -61q28 -24 62 -23q66 0 112 84l60 -27q-82 -137 -194 -137zM158 1462h139v-1458h-33q-4 -2 -7 -4h-99v1462z" />
    <glyph glyph-name="iogonek" unicode="&#x12f;" horiz-adv-x="378" 
d="M189 -430q-113 0 -155 47t-42 123t109 177q44 40 117 83h36v4h49q-149 -116 -175 -205q-7 -27 -7 -65q-1 -38 27 -61q28 -24 63 -23q67 0 113 84l59 -27q-82 -137 -194 -137zM125 1057h129v-1053h-29q-4 -2 -7 -4h-93v1057zM125 1462h129v-207h-129v207z" />
    <glyph glyph-name="Idot" unicode="&#x130;" horiz-adv-x="454" 
d="M158 1565v207h139v-207h-139zM158 1462h139v-1462h-139v1462z" />
    <glyph glyph-name="dotlessi" unicode="&#x131;" horiz-adv-x="378" 
d="M125 0v1057h129v-1057h-129z" />
    <glyph glyph-name="IJ" unicode="&#x132;" horiz-adv-x="1478" 
d="M1192 1462h139v-1054q0 -229 -98 -333t-328 -104t-330 153q-77 118 -77 345h139q2 -47 6 -113t29 -125q61 -143 246 -143q158 0 216 85t58 294v995zM158 1462h139v-1462h-139v1462z" />
    <glyph glyph-name="ij" unicode="&#x133;" horiz-adv-x="757" 
d="M633 -96q0 -296 -225 -293l-89 4v106q43 -5 68 -2q76 0 96 44t21 110v1184h129v-1153zM504 1462h129v-207h-129v207zM125 1057h129v-1057h-129v1057zM125 1462h129v-207h-129v207z" />
    <glyph glyph-name="Jcircumflex" unicode="&#x134;" horiz-adv-x="1024" 
d="M1130 1542h-133l-176 209l-180 -209h-117l232 289h141zM737 1462h140v-1054q0 -228 -98 -333q-98 -104 -329 -104q-230 0 -329 153q-78 120 -78 345h139q2 -47 6 -113t29 -125q61 -143 246 -143q158 0 216 85t58 294v995z" />
    <glyph glyph-name="jcircumflex" unicode="&#x135;" horiz-adv-x="378" 
d="M352 1204l-176 209l-180 -209h-117l232 289h141l233 -289h-133zM254 -96q0 -296 -225 -293l-88 4v106q42 -5 67 -2q76 0 96 44t21 110v1184h129v-1153z" />
    <glyph glyph-name="Kcommaaccent" unicode="&#x136;" horiz-adv-x="1327" 
d="M743 -334q0 -151 -101 -237q-34 -29 -81 -41v88q46 14 73 76q27 63 23 116h-86v217h172v-219zM287 1462v-786l850 786h188l-653 -604l684 -858h-180l-609 762l-280 -260v-502h-140v1462h140z" />
    <glyph glyph-name="kcommaaccent" unicode="&#x137;" horiz-adv-x="1024" 
d="M641 -334q0 -151 -101 -237q-34 -29 -81 -41v88q46 14 73 76q27 63 23 116h-86v217h172v-219zM252 1462v-917l586 512h172l-451 -391l481 -666h-161l-418 575l-209 -174v-401h-129v1462h129z" />
    <glyph glyph-name="kgreenlandic" unicode="&#x138;" horiz-adv-x="1024" 
d="M252 1057v-512l586 512h172l-451 -391l481 -666h-161l-418 575l-209 -174v-401h-129v1057h129z" />
    <glyph glyph-name="Lacute" unicode="&#x139;" horiz-adv-x="1099" 
d="M438 1565l215 288h160l-270 -288h-105zM147 1462h140v-1343h819v-119h-959v1462z" />
    <glyph glyph-name="lacute" unicode="&#x13a;" horiz-adv-x="378" 
d="M0 1565l215 288h160l-271 -288h-104zM125 1462h129v-1462h-129v1462z" />
    <glyph glyph-name="Lcommaaccent" unicode="&#x13b;" horiz-adv-x="1099" 
d="M641 -334q0 -151 -101 -237q-34 -29 -81 -41v88q46 14 73 76q27 63 23 116h-86v217h172v-219zM287 1462v-1343h819v-119h-959v1462h140z" />
    <glyph glyph-name="lcommaaccent" unicode="&#x13c;" horiz-adv-x="378" 
d="M272 -334q0 -151 -101 -237q-34 -29 -81 -41v88q46 14 73 76q27 63 23 116h-86v217h172v-219zM254 1462v-1462h-129v1462h129z" />
    <glyph glyph-name="Lcaron" unicode="&#x13d;" horiz-adv-x="1099" 
d="M455 1853l176 -208l180 208h119l-234 -288h-141l-231 288h131zM147 1462h140v-1343h819v-119h-959v1462z" />
    <glyph glyph-name="lcaron" unicode="&#x13e;" horiz-adv-x="573" 
d="M254 1462v-1462h-129v1462h129zM434 1462h103v-573h-103v573z" />
    <glyph glyph-name="Ldot" unicode="&#x13f;" horiz-adv-x="1099" 
d="M670 831h172v-217h-172v217zM287 1462v-1343h819v-119h-959v1462h140z" />
    <glyph glyph-name="ldot" unicode="&#x140;" horiz-adv-x="747" 
d="M424 831h172v-217h-172v217zM254 1462v-1462h-129v1462h129z" />
    <glyph glyph-name="Lslash" unicode="&#x141;" horiz-adv-x="1099" 
d="M147 1462h140v-739l497 344v-115l-497 -342v-491h819v-119h-959v514l-165 -117v115l165 115v835z" />
    <glyph glyph-name="lslash" unicode="&#x142;" horiz-adv-x="378" 
d="M125 1462h129v-547l137 113v-113l-137 -112v-803h-129v696l-135 -112v112l135 113v653z" />
    <glyph glyph-name="Nacute" unicode="&#x143;" horiz-adv-x="1441" 
d="M635 1579l215 289h160l-271 -289h-104zM1157 225v1237h139v-1462h-155l-852 1237h-4v-1237h-140v1462h156l852 -1237h4z" />
    <glyph glyph-name="nacute" unicode="&#x144;" horiz-adv-x="1099" 
d="M424 1204l215 289h160l-271 -289h-104zM250 1057v-183h4q37 96 131 154t206 59q311 0 370 -237q18 -76 18 -170v-680h-129v659q0 320 -268 320q-149 0 -239 -102q-91 -102 -93 -261v-616h-129v1057h129z" />
    <glyph glyph-name="Ncommaaccent" unicode="&#x145;" horiz-adv-x="1441" 
d="M805 -334q0 -153 -102 -237q-34 -29 -80 -41v88q69 20 93 138q5 30 3 54h-86v217h172v-219zM1157 225v1237h139v-1462h-155l-852 1237h-4v-1237h-140v1462h156l852 -1237h4z" />
    <glyph glyph-name="ncommaaccent" unicode="&#x146;" horiz-adv-x="1099" 
d="M641 -334q0 -151 -101 -237q-34 -29 -81 -41v88q46 14 73 76q27 63 23 116h-86v217h172v-219zM250 1057v-183h4q37 96 131 154t206 59q311 0 370 -237q18 -76 18 -170v-680h-129v659q0 320 -268 320q-149 0 -239 -102q-91 -102 -93 -261v-616h-129v1057h129z" />
    <glyph glyph-name="Ncaron" unicode="&#x147;" horiz-adv-x="1441" 
d="M438 1882h131l176 -209l181 209h118l-233 -289h-141zM145 1462h156l852 -1237h4v1237h139v-1462h-155l-852 1237h-4v-1237h-140v1462z" />
    <glyph glyph-name="ncaron" unicode="&#x148;" horiz-adv-x="1099" 
d="M291 1511h131l176 -208l180 208h119l-233 -288h-142zM121 1057h129v-183h4q37 96 131 154t206 59q311 0 370 -237q18 -76 18 -170v-680h-129v659q0 320 -268 320q-149 0 -239 -102q-91 -102 -93 -261v-616h-129v1057z" />
    <glyph glyph-name="napostrophe" unicode="&#x149;" horiz-adv-x="1429" 
d="M1180 659q0 320 -269 320q-148 0 -238 -102q-91 -102 -93 -261v-616h-129v1057h129v-183h4q37 96 131 154t206 59q212 0 306 -109q80 -92 82 -298v-680h-129v659zM348 1475v-220q0 -151 -101 -237q-34 -29 -81 -41v88q45 13 73 76t23 116h-86v218h172z" />
    <glyph glyph-name="Eng" unicode="&#x14a;" horiz-adv-x="1441" 
d="M1292 -96q0 -296 -225 -293l-88 4v106q43 -5 68 -2q76 0 96 44t20 110l-22 127l-856 1237v-1237h-140v1462h156l856 -1237v1237h135v-1558z" />
    <glyph glyph-name="eng" unicode="&#x14b;" horiz-adv-x="1087" 
d="M979 -96q0 -296 -225 -293l-88 4v106q42 -5 67 -2q76 0 96 44t21 110v786q0 320 -268 320q-149 0 -239 -102q-91 -102 -93 -261v-616h-129v1057h129v-183h4q37 96 131 154t206 59q311 0 370 -237q18 -76 18 -170v-776z" />
    <glyph glyph-name="Omacron" unicode="&#x14c;" horiz-adv-x="1517" 
d="M422 1688h672v-93h-672v93zM760 1493q329 0 516 -230q172 -210 172 -532t-172 -530q-189 -228 -516 -230q-172 1 -302 63t-216 166q-172 209 -172 530t172 533q86 105 216 167t302 63zM339 1172q-130 -177 -130 -440t130 -442q149 -202 421 -202t419 202q130 177 130 441
t-130 441q-149 202 -421 202t-419 -202z" />
    <glyph glyph-name="omacron" unicode="&#x14d;" horiz-adv-x="1138" 
d="M233 1290h672v-92h-672v92zM940 922q129 -156 129 -394t-132 -397q-131 -160 -367 -160q-235 0 -369 161q-133 161 -132 398t134 397t364 160q232 0 373 -165zM570 78q92 0 161 39q137 76 185 247q24 80 24 164q0 177 -98 314t-273 137q-91 0 -161 -39
q-135 -76 -185 -243q-49 -167 0 -335q49 -169 185 -245q70 -39 162 -39z" />
    <glyph glyph-name="Obreve" unicode="&#x14e;" horiz-adv-x="1517" 
d="M774 1688q58 0 121 44t76 123h80q-15 -123 -95 -191t-204 -69q-124 0 -200 68q-77 68 -87 192h80q2 -41 20 -72q54 -95 209 -95zM760 1493q329 0 516 -230q172 -210 172 -532t-172 -530q-189 -228 -516 -230q-172 1 -302 63t-216 166q-172 209 -172 530t172 533
q86 105 216 167t302 63zM339 1172q-130 -177 -130 -440t130 -442q149 -202 421 -202t419 202q130 177 130 441t-130 441q-149 202 -421 202t-419 -202z" />
    <glyph glyph-name="obreve" unicode="&#x14f;" horiz-adv-x="1138" 
d="M584 1290q58 0 123 44q63 44 75 124h80q-16 -124 -95 -192t-203 -68t-200 68t-88 192h80q2 -41 21 -73q53 -95 207 -95zM940 922q129 -156 129 -394t-132 -397q-131 -160 -367 -160q-235 0 -369 161q-133 161 -132 398t134 397t364 160q232 0 373 -165zM570 78
q92 0 161 39q137 76 185 247q24 80 24 164q0 177 -98 314t-273 137q-91 0 -161 -39q-135 -76 -185 -243q-49 -167 0 -335q49 -169 185 -245q70 -39 162 -39z" />
    <glyph glyph-name="Ohungarumlaut" unicode="&#x150;" horiz-adv-x="1517" 
d="M731 1876h156l-258 -289h-103zM1051 1876h155l-258 -289h-104zM760 1493q329 0 516 -230q172 -210 172 -532t-172 -530q-189 -228 -516 -230q-172 1 -302 63t-216 166q-172 209 -172 530t172 533q86 105 216 167t302 63zM339 1172q-130 -177 -130 -440t130 -442
q149 -202 421 -202t419 202q130 177 130 441t-130 441q-149 202 -421 202t-419 -202z" />
    <glyph glyph-name="ohungarumlaut" unicode="&#x151;" horiz-adv-x="1138" 
d="M520 1479h156l-258 -289h-103zM840 1479h155l-258 -289h-104zM940 922q129 -156 129 -394t-132 -397q-131 -160 -367 -160q-235 0 -369 161q-133 161 -132 398t134 397t364 160q232 0 373 -165zM570 78q92 0 161 39q137 76 185 247q24 80 24 164q0 177 -98 314t-273 137
q-91 0 -161 -39q-135 -76 -185 -243q-49 -167 0 -335q49 -169 185 -245q70 -39 162 -39z" />
    <glyph glyph-name="OE" unicode="&#x152;" horiz-adv-x="2199" 
d="M1165 1042q0 94 -10 136q-35 91 -154 144q-119 52 -242 52t-227 -52q-209 -105 -281 -345q-36 -117 -36 -246q0 -274 149 -458q149 -185 404 -185q113 0 201 35t159 127q32 40 37 112v680zM1165 143q-148 -172 -424 -172q-135 1 -264 61t-218 164q-183 215 -183 535
q0 319 183 535q89 104 218 166t291 61q260 0 397 -152v121h971v-119h-831v-528h753v-119h-753v-577h837v-119h-977v143z" />
    <glyph glyph-name="oe" unicode="&#x153;" horiz-adv-x="1820" 
d="M544 78q308 0 308 450t-311 451q-181 0 -269 -155q-69 -122 -69 -320q0 -282 182 -389q63 -37 159 -37zM545 -29q-240 0 -357 159q-116 159 -115 395q1 237 121 399q120 163 351 163q135 0 235 -62t142 -198h4q43 117 145 189t244 71q237 1 345 -149t107 -444h-786
q0 -174 79 -286q90 -130 251 -130q253 0 325 262h129q-43 -180 -163 -274t-304 -95q-131 0 -236 68t-140 199h-4q-38 -135 -140 -201t-233 -66zM1638 602q0 156 -87 267q-87 110 -241 110t-241 -108q-88 -108 -88 -269h657z" />
    <glyph glyph-name="Racute" unicode="&#x154;" horiz-adv-x="1366" 
d="M535 1565l215 288h159l-270 -288h-104zM147 1462h670q303 0 409 -210q36 -74 36 -192t-72 -220t-213 -131v-4q196 -27 238 -208q17 -72 22 -207q8 -222 63 -290h-153q-23 39 -28 91q-5 53 -7 83t-5 81q-11 184 -51 264q-68 137 -241 130h-528v-649h-140v1462zM287 768
h520q135 0 226 79t90 210t-79 209t-237 77h-520v-575z" />
    <glyph glyph-name="racute" unicode="&#x155;" horiz-adv-x="645" 
d="M195 1188l215 289h159l-270 -289h-104zM123 1057h119v-248h4q49 129 152 199t247 63v-129q-172 8 -283 -101q-110 -108 -110 -278v-563h-129v1057z" />
    <glyph glyph-name="Rcommaaccent" unicode="&#x156;" horiz-adv-x="1366" 
d="M743 -334q0 -151 -101 -237q-34 -29 -81 -41v88q46 14 73 76q27 63 23 116h-86v217h172v-219zM817 1462q303 0 409 -210q36 -74 36 -192t-72 -220t-213 -131v-4q196 -27 238 -208q17 -72 22 -207q8 -222 63 -290h-153q-23 39 -28 91q-5 53 -7 83t-5 81q-11 184 -51 264
q-68 137 -241 130h-528v-649h-140v1462h670zM807 768q135 0 226 79t90 210t-79 209t-237 77h-520v-575h520z" />
    <glyph glyph-name="rcommaaccent" unicode="&#x157;" horiz-adv-x="645" 
d="M272 -334q0 -151 -101 -237q-34 -29 -81 -41v88q46 14 73 76q27 63 23 116h-86v217h172v-219zM242 1057v-248h4q49 129 152 199t247 63v-129q-172 8 -283 -101q-110 -108 -110 -278v-563h-129v1057h119z" />
    <glyph glyph-name="Rcaron" unicode="&#x158;" horiz-adv-x="1366" 
d="M393 1872h131l176 -209l181 209h118l-233 -289h-141zM147 1462h670q303 0 409 -210q36 -74 36 -192t-72 -220t-213 -131v-4q196 -27 238 -208q17 -72 22 -207q8 -222 63 -290h-153q-23 39 -28 91q-5 53 -7 83t-5 81q-11 184 -51 264q-68 137 -241 130h-528v-649h-140
v1462zM287 768h520q135 0 226 79t90 210t-79 209t-237 77h-520v-575z" />
    <glyph glyph-name="rcaron" unicode="&#x159;" horiz-adv-x="645" 
d="M98 1516h131l177 -209l180 209h119l-234 -289h-141zM123 1057h119v-248h4q49 129 152 199t247 63v-129q-172 8 -283 -101q-110 -108 -110 -278v-563h-129v1057z" />
    <glyph glyph-name="Sacute" unicode="&#x15a;" horiz-adv-x="1290" 
d="M559 1579l215 289h160l-270 -289h-105zM1077 385q0 114 -99 182q-69 49 -202 82l-325 80q-154 39 -230 107q-102 93 -100 245q0 253 252 368q97 44 229 44q250 0 407 -120q156 -120 156 -335h-139q-8 159 -123 248q-115 90 -276 88q-250 0 -336 -153q-31 -55 -31 -122
q0 -156 136 -212q40 -16 85 -27l357 -88q272 -70 349 -231q30 -63 30 -154q0 -135 -82 -242q-133 -174 -477 -174q-130 0 -240 30q-228 62 -308 249q-42 96 -36 231h139q-7 -388 477 -393q143 0 251 69q136 84 136 228z" />
    <glyph glyph-name="sacute" unicode="&#x15b;" horiz-adv-x="985" 
d="M387 1204l215 289h160l-270 -289h-105zM229 801q0 -108 148 -161q39 -13 72 -22l172 -38q198 -29 274 -172q27 -51 27 -129q0 -79 -39 -139q-107 -166 -390 -168q-181 -1 -297 87t-133 283h130q8 -131 95 -198t216 -66q180 0 261 107q28 37 28 89q0 126 -147 172
q-42 14 -85 25l-166 37q-135 34 -215 97q-80 62 -80 199t129 216q109 67 269 67q260 0 352 -190q31 -63 35 -149h-129q-2 59 -25 103q-67 128 -242 128t-237 -96q-23 -35 -23 -82z" />
    <glyph glyph-name="Scircumflex" unicode="&#x15c;" horiz-adv-x="1290" 
d="M811 1595l-176 209l-180 -209h-117l231 289h142l233 -289h-133zM1077 385q0 114 -99 182q-69 49 -202 82l-325 80q-154 39 -230 107q-102 93 -100 245q0 253 252 368q97 44 229 44q250 0 407 -120q156 -120 156 -335h-139q-8 159 -123 248q-115 90 -276 88
q-250 0 -336 -153q-31 -55 -31 -122q0 -156 136 -212q40 -16 85 -27l357 -88q272 -70 349 -231q30 -63 30 -154q0 -135 -82 -242q-133 -174 -477 -174q-130 0 -240 30q-228 62 -308 249q-42 96 -36 231h139q-7 -388 477 -393q143 0 251 69q136 84 136 228z" />
    <glyph glyph-name="scircumflex" unicode="&#x15d;" horiz-adv-x="985" 
d="M662 1198l-177 209l-180 -209h-117l232 289h141l234 -289h-133zM229 801q0 -108 148 -161q39 -13 72 -22l172 -38q198 -29 274 -172q27 -51 27 -129q0 -79 -39 -139q-107 -166 -390 -168q-181 -1 -297 87t-133 283h130q8 -131 95 -198t216 -66q180 0 261 107q28 37 28 89
q0 126 -147 172q-42 14 -85 25l-166 37q-135 34 -215 97q-80 62 -80 199t129 216q109 67 269 67q260 0 352 -190q31 -63 35 -149h-129q-2 59 -25 103q-67 128 -242 128t-237 -96q-23 -35 -23 -82z" />
    <glyph glyph-name="Scedilla" unicode="&#x15e;" horiz-adv-x="1290" 
d="M729 -278q0 82 -105 83q-51 0 -87 -16l-33 31l119 152q17 -1 35 -1t36 1l-84 -109q154 25 214 -51q24 -29 24 -76q0 -87 -68 -131q-68 -45 -138 -45q-130 0 -210 43l27 65q76 -28 140 -28q130 0 130 82zM1077 385q0 114 -99 182q-69 49 -202 82l-325 80q-154 39 -230 107
q-102 93 -100 245q0 253 252 368q97 44 229 44q250 0 407 -120q156 -120 156 -335h-139q-8 159 -123 248q-115 90 -276 88q-250 0 -336 -153q-31 -55 -31 -122q0 -156 136 -212q40 -16 85 -27l357 -88q272 -70 349 -231q30 -63 30 -154q0 -135 -82 -242q-126 -164 -441 -173
l6 8h-71l-6 -8q-400 11 -513 278q-42 96 -36 231h139q-7 -388 477 -393q143 0 251 69q136 84 136 228z" />
    <glyph glyph-name="scedilla" unicode="&#x15f;" horiz-adv-x="985" 
d="M580 -278q0 82 -105 83q-51 0 -88 -16l-33 31l119 152h31t42 1l-85 -110q151 25 214 -51q23 -29 23 -76q-1 -88 -68 -132q-68 -44 -137 -44q-130 0 -210 43l26 65q76 -28 140 -28q131 0 131 82zM229 801q0 -108 148 -161q39 -13 72 -22l172 -38q198 -29 274 -172
q27 -51 27 -129q0 -79 -39 -139q-96 -148 -337 -167l5 7h-72l-6 -8q-169 5 -281 90t-129 280h130q8 -131 95 -198t216 -66q180 0 261 107q28 37 28 89q0 126 -147 172q-42 14 -85 25l-166 37q-135 34 -215 97q-80 62 -80 199t129 216q109 67 269 67q260 0 352 -190
q31 -63 35 -149h-129q-2 59 -25 103q-67 128 -242 128t-237 -96q-23 -35 -23 -82z" />
    <glyph glyph-name="Scaron" unicode="&#x160;" horiz-adv-x="1290" 
d="M1077 385q0 114 -99 182q-69 49 -202 82l-325 80q-154 39 -230 107q-102 93 -100 245q0 253 252 368q97 44 229 44q250 0 407 -120q156 -120 156 -335h-139q-8 159 -123 248q-115 90 -276 88q-250 0 -336 -153q-31 -55 -31 -122q0 -156 136 -212q40 -16 85 -27l357 -88
q272 -70 349 -231q30 -63 30 -154q0 -135 -82 -242q-133 -174 -477 -174q-130 0 -240 30q-228 62 -308 249q-42 96 -36 231h139q-7 -388 477 -393q143 0 251 69q136 84 136 228zM342 1868h133l176 -209l180 209h119l-233 -289h-142z" />
    <glyph glyph-name="scaron" unicode="&#x161;" horiz-adv-x="985" 
d="M229 801q0 -108 148 -161q39 -13 72 -22l172 -38q198 -29 274 -172q27 -51 27 -129q0 -79 -39 -139q-107 -166 -390 -168q-181 -1 -297 87t-133 283h130q8 -131 95 -198t216 -66q180 0 261 107q28 37 28 89q0 126 -147 172q-42 14 -85 25l-166 37q-135 34 -215 97
q-80 62 -80 199t129 216q109 67 269 67q260 0 352 -190q31 -63 35 -149h-129q-2 59 -25 103q-67 128 -242 128t-237 -96q-23 -35 -23 -82zM188 1493h134l176 -209l180 209h119l-234 -289h-141z" />
    <glyph glyph-name="Tcedilla" unicode="&#x162;" horiz-adv-x="1138" 
d="M529 -340q130 0 128 88q-1 76 -105 78q-52 0 -87 -16l-33 30l125 160h72l-90 -117q151 25 214 -51q23 -29 23 -76q-1 -89 -74 -134q-64 -42 -132 -42q-128 0 -210 43l27 66q79 -29 142 -29zM-8 1462h1157v-119h-510v-1343h-139v1343h-508v119z" />
    <glyph glyph-name="tcedilla" unicode="&#x163;" horiz-adv-x="606" 
d="M238 -342q129 0 129 82t-105 84q-51 0 -88 -17l-33 31l125 160h72l-90 -117q151 25 214 -51q24 -29 24 -76q-1 -88 -69 -132t-137 -44q-130 0 -210 43l26 66q79 -29 142 -29zM199 948h-185v109h185v317h129v-317h215v-109h-215v-712q0 -64 17 -100t79 -38t119 4v-108
l-115 -4q-51 0 -90 8h-2q-58 12 -88 42q-51 50 -49 185v723z" />
    <glyph glyph-name="Tcaron" unicode="&#x164;" horiz-adv-x="1138" 
d="M272 1876h131l177 -209l180 209h119l-234 -289h-141zM-8 1462h1157v-119h-510v-1343h-139v1343h-508v119z" />
    <glyph glyph-name="tcaron" unicode="&#x165;" horiz-adv-x="606" 
d="M199 948h-185v109h185v317h129v-317h215v-109h-215v-712q0 -64 17 -100t79 -38t119 4v-108l-115 -4q-129 0 -180 50t-49 185v723zM659 1456q0 -151 -101 -237q-34 -29 -79 -41v88q43 14 71 76t23 114h-65v217h151v-217z" />
    <glyph glyph-name="Tbar" unicode="&#x166;" horiz-adv-x="1138" 
d="M500 930v413h-508v119h1157v-119h-510v-413h283v-109h-283v-821h-139v821h-312v109h312z" />
    <glyph glyph-name="tbar" unicode="&#x167;" horiz-adv-x="606" 
d="M199 616h-185v109h185v223h-185v109h185v317h129v-317h215v-109h-215v-223h215v-109h-215v-380q0 -64 17 -100t79 -38t119 4v-108l-115 -4q-129 0 -180 50t-49 185v391z" />
    <glyph glyph-name="Utilde" unicode="&#x168;" horiz-adv-x="1402" 
d="M913 1592q-31 -17 -85 -17q-54 1 -114 33q-62 32 -92 46t-67 15q-37 0 -67 -27t-29 -77h-80q14 127 109 179q32 17 84 17q52 -1 114 -31t92 -44t58 -15q77 0 106 98h78q-22 -131 -107 -177zM133 1462h139v-905q0 -362 248 -443q80 -26 181 -26q211 0 321 112t108 357v905
h140v-936q0 -243 -140 -399t-430 -156q-289 0 -435 164q-132 145 -132 391v936z" />
    <glyph glyph-name="utilde" unicode="&#x169;" horiz-adv-x="1099" 
d="M684 1274q78 0 107 98h77q-22 -130 -106 -177q-31 -17 -86 -17t-141 46t-127 47t-71 -26t-30 -78h-80q9 81 44 122q64 75 133 75q68 0 158 -45q34 -17 64 -31t58 -14zM121 371v686h129v-688q4 -143 66 -217t217 -74t241 131q74 112 76 293v555h129v-1057h-119v190h-4
q-51 -106 -148 -162t-216 -57q-371 0 -371 400z" />
    <glyph glyph-name="Umacron" unicode="&#x16a;" horiz-adv-x="1402" 
d="M365 1657h671v-92h-671v92zM133 1462h139v-905q0 -362 248 -443q80 -26 181 -26q211 0 321 112t108 357v905h140v-936q0 -243 -140 -399t-430 -156q-289 0 -435 164q-132 145 -132 391v936z" />
    <glyph glyph-name="umacron" unicode="&#x16b;" horiz-adv-x="1099" 
d="M213 1260h672v-93h-672v93zM121 371v686h129v-688q4 -143 66 -217t217 -74t241 131q74 112 76 293v555h129v-1057h-119v190h-4q-51 -106 -148 -162t-216 -57q-371 0 -371 400z" />
    <glyph glyph-name="Ubreve" unicode="&#x16c;" horiz-adv-x="1402" 
d="M508 1752q53 -95 208 -95q58 0 122 44q63 44 75 124h80q-16 -123 -95 -192t-203 -69q-125 0 -201 68t-86 193h79q2 -41 21 -73zM133 1462h139v-905q0 -362 248 -443q80 -26 181 -26q211 0 321 112t108 357v905h140v-936q0 -243 -140 -399t-430 -156q-289 0 -435 164
q-132 145 -132 391v936z" />
    <glyph glyph-name="ubreve" unicode="&#x16d;" horiz-adv-x="1099" 
d="M544 1167q-124 0 -201 68t-87 192h80q2 -41 20 -72q52 -95 208 -95q58 0 122 44q63 44 76 123h80q-16 -123 -96 -191q-78 -68 -202 -69zM121 371v686h129v-688q4 -143 66 -217t217 -74t241 131q74 112 76 293v555h129v-1057h-119v190h-4q-51 -106 -148 -162t-216 -57
q-371 0 -371 400z" />
    <glyph glyph-name="Uring" unicode="&#x16e;" horiz-adv-x="1402" 
d="M494 1738q0 94 62 155t155 62q92 1 154 -63q63 -64 64 -154q1 -92 -63 -156t-156 -64q-90 0 -153 63t-63 157zM571 1737q0 -59 40 -99q39 -40 99 -41q60 0 100 40q40 39 40 99t-40 100t-99 40t-99 -40t-41 -99zM133 1462h139v-905q0 -362 248 -443q80 -26 181 -26
q211 0 321 112t108 357v905h140v-936q0 -243 -140 -399t-430 -156q-289 0 -435 164q-132 145 -132 391v936z" />
    <glyph glyph-name="uring" unicode="&#x16f;" horiz-adv-x="1099" 
d="M782 1405q0 -91 -64 -155t-156 -64t-154 64t-62 156q0 93 64 156q64 62 154 62t154 -64t64 -155zM424 1405q0 -59 40 -99t99 -40t100 40q40 40 39 99q0 59 -39 99t-99 40t-100 -40t-40 -99zM121 371v686h129v-688q4 -143 66 -217t217 -74t241 131q74 112 76 293v555h129
v-1057h-119v190h-4q-51 -106 -148 -162t-216 -57q-371 0 -371 400z" />
    <glyph glyph-name="Uhungarumlaut" unicode="&#x170;" horiz-adv-x="1402" 
d="M612 1864h156l-258 -289h-102zM932 1864h155l-258 -289h-104zM133 1462h139v-905q0 -362 248 -443q80 -26 181 -26q211 0 321 112t108 357v905h140v-936q0 -243 -140 -399t-430 -156q-289 0 -435 164q-132 145 -132 391v936z" />
    <glyph glyph-name="uhungarumlaut" unicode="&#x171;" horiz-adv-x="1099" 
d="M446 1503h156l-258 -289h-102zM766 1503h156l-258 -289h-105zM121 371v686h129v-688q4 -143 66 -217t217 -74t241 131q74 112 76 293v555h129v-1057h-119v190h-4q-51 -106 -148 -162t-216 -57q-371 0 -371 400z" />
    <glyph glyph-name="Uogonek" unicode="&#x172;" horiz-adv-x="1402" 
d="M133 1462h139v-905q0 -362 248 -443q80 -26 181 -26q211 0 321 112t108 357v905h140v-936q0 -243 -126 -383t-331 -165l2 2h-78q-7 -4 -13 -8q-12 0 -24 -1q-288 0 -435 164q-132 145 -132 391v936zM546 -408q-42 47 -42 124t109 176q42 38 111 80q47 1 89 6
q-145 -113 -173 -203q-7 -27 -7 -65q-1 -38 27 -62t63 -23q65 0 113 84l59 -26q-82 -138 -194 -138q-113 0 -155 47z" />
    <glyph glyph-name="uogonek" unicode="&#x173;" horiz-adv-x="1099" 
d="M550 -455q-198 0 -198 168q0 81 110 179q46 42 124 88h78q-149 -116 -176 -205q-7 -27 -7 -65t28 -62t62 -23q65 0 113 84l59 -26q-81 -138 -193 -138zM121 371v686h129v-688q4 -143 66 -217t217 -74t241 131q74 112 76 293v555h129v-1057h-119v190h-4
q-51 -106 -148 -162t-216 -57q-371 0 -371 400z" />
    <glyph glyph-name="Wcircumflex" unicode="&#x174;" horiz-adv-x="1857" 
d="M1096 1565l-176 209l-181 -209h-116l231 288h141l234 -288h-133zM0 1462h150l331 -1280h4l357 1280h174l358 -1280h4l334 1280h139l-403 -1462h-148l-370 1309h-4l-369 -1309h-151z" />
    <glyph glyph-name="wcircumflex" unicode="&#x175;" horiz-adv-x="1517" 
d="M928 1167l-176 209l-181 -209h-116l231 289h141l234 -289h-133zM16 1057h138l270 -905h4l258 905h145l259 -905h4l270 905h137l-340 -1057h-141l-260 889h-4l-258 -889h-142z" />
    <glyph glyph-name="Ycircumflex" unicode="&#x176;" horiz-adv-x="1251" 
d="M797 1565l-176 209l-181 -209h-116l231 288h141l234 -288h-133zM694 0h-139v602l-573 860h163l482 -741l479 741h166l-578 -860v-602z" />
    <glyph glyph-name="ycircumflex" unicode="&#x177;" horiz-adv-x="948" 
d="M643 1167l-176 209l-180 -209h-117l231 289h142l233 -289h-133zM206 -281q94 0 144 99q14 31 31 67l45 119l-422 1053h137l348 -901l326 901h129l-459 -1217q-59 -138 -98 -172q-39 -35 -79 -46t-112 -9t-87 8v109q63 -11 97 -11z" />
    <glyph glyph-name="Ydieresis" unicode="&#x178;" horiz-adv-x="1251" 
d="M694 0h-139v602l-573 860h163l482 -741l479 741h166l-578 -860v-602zM737 1614v207h140v-207h-140zM375 1614v207h139v-207h-139z" />
    <glyph glyph-name="Zacute" unicode="&#x179;" horiz-adv-x="1175" 
d="M481 1579l215 289h160l-270 -289h-105zM1128 1462v-123l-962 -1220h983v-119h-1139v123l963 1220h-897v119h1052z" />
    <glyph glyph-name="zacute" unicode="&#x17a;" horiz-adv-x="948" 
d="M369 1204l215 289h159l-270 -289h-104zM913 109v-109h-882v104l690 844h-643v109h807v-92l-699 -856h727z" />
    <glyph glyph-name="Zdotaccent" unicode="&#x17b;" horiz-adv-x="1175" 
d="M518 1821h139v-207h-139v207zM1128 1462v-123l-962 -1220h983v-119h-1139v123l963 1220h-897v119h1052z" />
    <glyph glyph-name="zdotaccent" unicode="&#x17c;" horiz-adv-x="948" 
d="M403 1446h140v-207h-140v207zM913 109v-109h-882v104l690 844h-643v109h807v-92l-699 -856h727z" />
    <glyph glyph-name="Zcaron" unicode="&#x17d;" horiz-adv-x="1175" 
d="M76 1462h1052v-123l-962 -1220h983v-119h-1139v123l963 1220h-897v119zM285 1868h133l176 -209l180 209h119l-234 -289h-141z" />
    <glyph glyph-name="zcaron" unicode="&#x17e;" horiz-adv-x="948" 
d="M913 109v-109h-882v104l690 844h-643v109h807v-92l-699 -856h727zM170 1493h133l176 -209l180 209h119l-233 -289h-142z" />
    <glyph glyph-name="longs" unicode="&#x17f;" horiz-adv-x="530" 
d="M446 1354q-36 0 -65 -16q-53 -30 -57 -109q-2 -37 -2 -80v-1149h-129v948h-181v109h181v96q0 154 49 223q62 88 207 86q48 0 108 -8v-111q-75 11 -111 11z" />
    <glyph glyph-name="uni018E" unicode="&#x18e;" horiz-adv-x="1214" 
d="M158 0v119h870v528h-815v119h815v577h-881v119h1020v-1462h-1009z" />
    <glyph glyph-name="uni018F" unicode="&#x18f;" horiz-adv-x="1458" 
d="M217 657q0 -226 140 -398q140 -171 372 -171q231 0 375 174q123 149 141 395h-1028zM1235 1263q154 -202 154 -529t-166 -533q-184 -228 -512 -230q-290 0 -466 208q-175 208 -175 597h1177q-22 411 -284 547q-99 51 -251 51t-285 -103t-177 -251h-139q46 218 220 346
q174 127 371 127q359 0 533 -230z" />
    <glyph glyph-name="florin" unicode="&#x192;" horiz-adv-x="1138" 
d="M979 1346q-46 8 -103 7q-147 -3 -192 -208q-12 -55 -25 -109l-28 -137h231l-18 -108h-232l-125 -662l-36 -178q-34 -189 -160 -264q-68 -41 -185 -39q-35 0 -92 10l19 111q53 -11 103 -11q84 1 135 78q32 48 57 150l153 805h-205l19 108h207l26 141q18 80 37 157
q62 265 312 265q45 0 127 -10z" />
    <glyph glyph-name="Ohorn" unicode="&#x1a0;" horiz-adv-x="1724" 
d="M339 1172q-130 -177 -130 -440t130 -442q149 -202 421 -202t419 202q130 177 130 441t-130 441q-149 202 -421 202t-419 -202zM1448 754q0 -174 -43 -312q-89 -283 -344 -408q-129 -62 -301 -62t-302 62t-216 166q-172 209 -172 530t172 533q86 105 216 167t302 63
q330 0 516 -231q44 -38 74 -49q29 -11 71 -11q82 -2 105 66t22 194h119q0 -206 -47 -281t-184 -75q-37 0 -68 10q80 -188 80 -362z" />
    <glyph glyph-name="ohorn" unicode="&#x1a1;" horiz-adv-x="1341" 
d="M570 78q92 0 161 39q137 76 185 247q24 80 24 164q0 177 -98 314t-273 137q-91 0 -161 -39q-135 -76 -185 -243q-49 -167 0 -335q49 -169 185 -245q70 -39 162 -39zM1081 852q68 0 86 50t19 155h98q0 -145 -37 -215t-153 -70q-39 0 -74 12l16 -41q33 -100 33 -215
t-33 -216q-69 -211 -253 -297q-93 -44 -214 -44t-214 44q-182 86 -253 297q-33 101 -32 216q0 239 133 399t354 160q222 0 352 -135q20 -18 53 -50t59 -41t60 -9z" />
    <glyph glyph-name="uni01A2" unicode="&#x1a2;" horiz-adv-x="1460" 
d="M760 1374q-274 0 -421 -202q-130 -177 -130 -440t130 -442q149 -202 421 -202q78 0 135 14v1258q-57 14 -135 14zM1174 1343h-140v-1320q-126 -51 -286 -51t-290 62t-216 166q-172 209 -172 530t172 533q86 105 216 167t276 63q146 0 243 -31h336v-1851h-139v1732z" />
    <glyph glyph-name="uni01A3" unicode="&#x1a3;" horiz-adv-x="1177" 
d="M548 78q71 0 122 14v873q-43 14 -118 14q-74 0 -144 -39q-135 -76 -185 -243q-49 -167 0 -335q49 -169 185 -245q70 -39 140 -39zM554 1087q106 0 194 -30h309v-1446h-129v1337h-129v-925q-95 -51 -223 -51t-221 43q-182 86 -252 297t-1 427q69 215 253 303q93 44 199 45
z" />
    <glyph glyph-name="uni01A7" unicode="&#x1a7;" horiz-adv-x="1290" 
d="M626 -29q-231 0 -375 85q-104 64 -154 178q-29 70 -29 157q0 163 102 249t276 132l357 88q103 23 144 60q77 68 77 157q0 87 -31 143q-86 153 -336 154q-164 0 -278 -89t-121 -247h-139q0 215 156 335t384 120q272 0 407 -152q97 -109 97 -277q1 -70 -27 -128
q-53 -115 -179 -166q-60 -25 -123 -41l-326 -80q-129 -30 -187 -72q-59 -41 -87 -85t-28 -116q0 -71 40 -127q112 -161 370 -161q78 0 166 20q186 41 254 185q37 75 35 188h139q6 -135 -35 -231q-123 -279 -549 -279z" />
    <glyph glyph-name="uni01A8" unicode="&#x1a8;" horiz-adv-x="985" 
d="M135 897q93 190 354 190q260 0 360 -159q36 -57 36 -131q0 -180 -178 -251q-53 -22 -117 -38l-166 -37q-167 -39 -212 -114q-19 -33 -19 -83q0 -97 98 -151q77 -45 198 -45t208 66t96 198h129q-16 -195 -132 -283t-303 -88q-272 0 -385 169q-39 60 -39 138t27 130
q76 144 275 172l172 38q219 53 219 179q0 94 -75 138t-152 44t-127 -13q-104 -27 -148 -115q-23 -44 -25 -103h-129q4 86 35 149z" />
    <glyph glyph-name="Uhorn" unicode="&#x1af;" horiz-adv-x="1775" 
d="M1270 1268q66 -66 150 -67t106 67q23 68 22 194h119q0 -205 -47 -281q-47 -75 -193 -75q-80 0 -157 65v-645q0 -243 -140 -399t-430 -156q-289 0 -435 164q-132 145 -132 391v936h139v-905q0 -362 248 -443q80 -26 181 -26q211 0 321 112t108 357v905h140v-194z" />
    <glyph glyph-name="uhorn" unicode="&#x1b0;" horiz-adv-x="1384" 
d="M1094 772q-55 0 -115 35v-807h-119v190h-4q-51 -106 -148 -162t-216 -57q-371 0 -371 400v686h129v-688q4 -143 66 -217t217 -74t241 131q74 112 76 293v555h129v-170q7 -14 37 -24q31 -11 65 -11q68 0 86 50t19 155h98q0 -145 -37 -215t-153 -70z" />
    <glyph glyph-name="uni01B5" unicode="&#x1b5;" horiz-adv-x="1175" 
d="M143 696v119h412l418 528h-897v119h1052v-123l-413 -524h336v-119h-430l-455 -577h983v-119h-1139v123l453 573h-320z" />
    <glyph glyph-name="uni01B6" unicode="&#x1b6;" horiz-adv-x="948" 
d="M156 500v108h286l279 340h-643v109h807v-92l-291 -357h211v-108h-299l-320 -391h727v-109h-882v104l323 396h-198z" />
    <glyph glyph-name="clickdental" unicode="&#x1c0;" horiz-adv-x="454" 
d="M174 1610h109v-2046h-109v2046z" />
    <glyph glyph-name="clicklateral" unicode="&#x1c1;" horiz-adv-x="909" 
d="M629 1610h108v-2046h-108v2046zM174 1610h109v-2046h-109v2046z" />
    <glyph glyph-name="clickretroflex" unicode="&#x1c3;" horiz-adv-x="493" 
d="M178 1462h139v-436l-30 -661h-78l-31 661v436zM162 0v217h172v-217h-172z" />
    <glyph glyph-name="DZcaron" unicode="&#x1c4;" horiz-adv-x="2578" 
d="M1679 1853h131l177 -208l180 208h119l-234 -288h-141zM1479 1462h1052v-123l-962 -1220h983v-119h-1139v123l963 1220h-897v119zM287 119h297q318 1 460 143t142 470t-144 470q-144 143 -458 141h-297v-1224zM147 1462h506q334 -8 503 -187t169 -544t-169 -544t-503 -187
h-506v1462z" />
    <glyph glyph-name="Dzcaron" unicode="&#x1c5;" horiz-adv-x="2351" 
d="M1571 1456h131l176 -209l180 209h119l-233 -289h-142zM2316 109v-109h-882v104l690 844h-643v109h807v-92l-699 -856h727zM287 119h297q318 1 460 143t142 470t-144 470q-144 143 -458 141h-297v-1224zM147 1462h506q334 -8 503 -187t169 -544t-169 -544t-503 -187h-506
v1462z" />
    <glyph glyph-name="dzcaron" unicode="&#x1c6;" horiz-adv-x="2123" 
d="M1343 1456h132l176 -209l180 209h119l-234 -289h-141zM2089 109v-109h-883v104l690 844h-643v109h807v-92l-698 -856h727zM207 528q0 -294 188 -410q66 -40 163 -40t168 40q194 109 196 409t-196 412q-71 40 -168 40q-177 0 -270 -143q-81 -122 -81 -308zM1053 0h-119
v201h-4q-41 -104 -148 -166t-229 -63q-121 -1 -210 43q-174 86 -237 299q-29 101 -28 214q0 241 122 400t353 159q192 0 308 -131q38 -43 59 -100h4v606h129v-1462z" />
    <glyph glyph-name="LJ" unicode="&#x1c7;" horiz-adv-x="2123" 
d="M1837 1462h139v-1054q0 -229 -98 -333t-328 -104t-329 153q-78 120 -78 345h139q2 -47 6 -113t29 -125q61 -143 246 -143q158 0 216 85t58 294v995zM147 1462h140v-1343h819v-119h-959v1462z" />
    <glyph glyph-name="Lj" unicode="&#x1c8;" horiz-adv-x="1478" 
d="M1354 -96q0 -296 -226 -293l-88 4v106q43 -5 68 -2q76 0 96 44t21 110v1184h129v-1153zM1225 1462h129v-207h-129v207zM147 1462h140v-1343h819v-119h-959v1462z" />
    <glyph glyph-name="lj" unicode="&#x1c9;" horiz-adv-x="757" 
d="M633 -96q0 -296 -225 -293l-89 4v106q43 -5 68 -2q76 0 96 44t21 110v1184h129v-1153zM504 1462h129v-207h-129v207zM125 1462h129v-1462h-129v1462z" />
    <glyph glyph-name="NJ" unicode="&#x1ca;" horiz-adv-x="2465" 
d="M2179 1462h139v-1054q0 -229 -98 -333t-328 -104t-329 153q-78 120 -78 345h139q2 -47 6 -113t29 -125q61 -143 246 -143q158 0 216 85t58 294v995zM145 1462h156l852 -1237h4v1237h139v-1462h-155l-852 1237h-4v-1237h-140v1462z" />
    <glyph glyph-name="Nj" unicode="&#x1cb;" horiz-adv-x="1820" 
d="M1696 -96q0 -296 -226 -293l-88 4v106q43 -5 68 -2q76 0 96 44t21 110v1184h129v-1153zM1567 1462h129v-207h-129v207zM145 1462h156l852 -1237h4v1237h139v-1462h-155l-852 1237h-4v-1237h-140v1462z" />
    <glyph glyph-name="nj" unicode="&#x1cc;" horiz-adv-x="1478" 
d="M1354 -96q0 -296 -226 -293l-88 4v106q43 -5 68 -2q76 0 96 44t21 110v1184h129v-1153zM1225 1462h129v-207h-129v207zM121 1057h129v-183h4q37 96 131 154t206 59q311 0 370 -237q18 -76 18 -170v-680h-129v659q0 320 -268 320q-149 0 -239 -102q-91 -102 -93 -261v-616
h-129v1057z" />
    <glyph glyph-name="Acaron" unicode="&#x1cd;" horiz-adv-x="1290" 
d="M342 1853h131l176 -208l180 208h119l-233 -288h-142zM575 1462h156l574 -1462h-150l-178 455h-666l-176 -455h-147zM354 573h576l-283 750z" />
    <glyph glyph-name="acaron" unicode="&#x1ce;" 
d="M252 1487h131l176 -209l180 209h119l-233 -289h-142zM799 578h-4q-16 -31 -104 -46q-87 -16 -174 -27q-322 -41 -322 -203q1 -107 69 -166q69 -58 154 -58q169 0 275 91t106 241v168zM111 733q23 354 420 354t397 -339v-562q0 -78 76 -77q23 0 40 8v-109q-46 -8 -89 -8
q-122 0 -141 110q-5 34 -5 74h-4q-78 -114 -159 -163q-80 -49 -226 -50q-245 0 -327 169q-27 58 -27 154t49 158t130 95t182 46t174 21t104 14q92 19 93 126q2 185 -168 216q-50 9 -108 9q-122 0 -200 -58t-82 -188h-129z" />
    <glyph glyph-name="Icaron" unicode="&#x1cf;" horiz-adv-x="454" 
d="M-76 1853h131l176 -208l181 208h118l-233 -288h-141zM158 1462h139v-1462h-139v1462z" />
    <glyph glyph-name="icaron" unicode="&#x1d0;" horiz-adv-x="378" 
d="M-113 1456h131l177 -209l180 209h119l-234 -289h-141zM125 0v1057h129v-1057h-129z" />
    <glyph glyph-name="Ocaron" unicode="&#x1d1;" horiz-adv-x="1517" 
d="M455 1884h131l176 -209l180 209h119l-234 -289h-141zM760 1493q329 0 516 -230q172 -210 172 -532t-172 -530q-189 -228 -516 -230q-172 1 -302 63t-216 166q-172 209 -172 530t172 533q86 105 216 167t302 63zM339 1172q-130 -177 -130 -440t130 -442q149 -202 421 -202
t419 202q130 177 130 441t-130 441q-149 202 -421 202t-419 -202z" />
    <glyph glyph-name="ocaron" unicode="&#x1d2;" horiz-adv-x="1138" 
d="M266 1487h131l176 -209l181 209h118l-233 -289h-141zM940 922q129 -156 129 -394t-132 -397q-131 -160 -367 -160q-235 0 -369 161q-133 161 -132 398t134 397t364 160q232 0 373 -165zM570 78q92 0 161 39q137 76 185 247q24 80 24 164q0 177 -98 314t-273 137
q-91 0 -161 -39q-135 -76 -185 -243q-49 -167 0 -335q49 -169 185 -245q70 -39 162 -39z" />
    <glyph glyph-name="Ucaron" unicode="&#x1d3;" horiz-adv-x="1402" 
d="M397 1853h131l177 -208l180 208h119l-234 -288h-141zM133 1462h139v-905q0 -362 248 -443q80 -26 181 -26q211 0 321 112t108 357v905h140v-936q0 -243 -140 -399t-430 -156q-289 0 -435 164q-132 145 -132 391v936z" />
    <glyph glyph-name="ucaron" unicode="&#x1d4;" horiz-adv-x="1099" 
d="M246 1456h131l176 -209l180 209h119l-234 -289h-141zM121 371v686h129v-688q4 -143 66 -217t217 -74t241 131q74 112 76 293v555h129v-1057h-119v190h-4q-51 -106 -148 -162t-216 -57q-371 0 -371 400z" />
    <glyph glyph-name="Udieresismacron" unicode="&#x1d5;" horiz-adv-x="1402" 
d="M365 1874v92h671v-92h-671zM811 1565v207h139v-207h-139zM451 1565v207h137v-207h-137zM133 1462h139v-905q0 -362 248 -443q80 -26 181 -26q211 0 321 112t108 357v905h140v-936q0 -243 -140 -399t-430 -156q-289 0 -435 164q-132 145 -132 391v936z" />
    <glyph glyph-name="udieresismacron" unicode="&#x1d6;" horiz-adv-x="1099" 
d="M213 1468v93h672v-93h-672zM659 1167v207h140v-207h-140zM299 1167v207h137v-207h-137zM121 371v686h129v-688q4 -143 66 -217t217 -74t241 131q74 112 76 293v555h129v-1057h-119v190h-4q-51 -106 -148 -162t-216 -57q-371 0 -371 400z" />
    <glyph glyph-name="Udieresisacute" unicode="&#x1d7;" horiz-adv-x="1402" 
d="M764 1884h-105l215 289h160zM811 1565v207h139v-207h-139zM451 1565v207h137v-207h-137zM133 1462h139v-905q0 -362 248 -443q80 -26 181 -26q211 0 321 112t108 357v905h140v-936q0 -243 -140 -399t-430 -156q-289 0 -435 164q-132 145 -132 391v936z" />
    <glyph glyph-name="udieresisacute" unicode="&#x1d8;" horiz-adv-x="1099" 
d="M584 1468h-105l215 289h160zM659 1167v207h140v-207h-140zM299 1167v207h137v-207h-137zM121 371v686h129v-688q4 -143 66 -217t217 -74t241 131q74 112 76 293v555h129v-1057h-119v190h-4q-51 -106 -148 -162t-216 -57q-371 0 -371 400z" />
    <glyph glyph-name="Udieresiscaron" unicode="&#x1d9;" horiz-adv-x="1402" 
d="M397 2163h131l177 -209l180 209h119l-234 -289h-141zM811 1565v207h139v-207h-139zM451 1565v207h137v-207h-137zM133 1462h139v-905q0 -362 248 -443q80 -26 181 -26q211 0 321 112t108 357v905h140v-936q0 -243 -140 -399t-430 -156q-289 0 -435 164q-132 145 -132 391
v936z" />
    <glyph glyph-name="udieresiscaron" unicode="&#x1da;" horiz-adv-x="1099" 
d="M246 1757h131l176 -209l180 209h119l-234 -289h-141zM659 1167v207h140v-207h-140zM299 1167v207h137v-207h-137zM121 371v686h129v-688q4 -143 66 -217t217 -74t241 131q74 112 76 293v555h129v-1057h-119v190h-4q-51 -106 -148 -162t-216 -57q-371 0 -371 400z" />
    <glyph glyph-name="Udieresisgrave" unicode="&#x1db;" horiz-adv-x="1402" 
d="M385 2163h158l215 -289h-105zM811 1565v207h139v-207h-139zM451 1565v207h137v-207h-137zM133 1462h139v-905q0 -362 248 -443q80 -26 181 -26q211 0 321 112t108 357v905h140v-936q0 -243 -140 -399t-430 -156q-289 0 -435 164q-132 145 -132 391v936z" />
    <glyph glyph-name="udieresisgrave" unicode="&#x1dc;" horiz-adv-x="1099" 
d="M258 1757h158l215 -289h-105zM659 1167v207h140v-207h-140zM299 1167v207h137v-207h-137zM121 371v686h129v-688q4 -143 66 -217t217 -74t241 131q74 112 76 293v555h129v-1057h-119v190h-4q-51 -106 -148 -162t-216 -57q-371 0 -371 400z" />
    <glyph glyph-name="uni01DD" unicode="&#x1dd;" 
d="M887 565q0 264 -191 377q-66 39 -157 39q-141 0 -221 -74t-111 -196h-129q41 180 150 278q110 98 311 98q241 0 359 -158t118 -392q0 -233 -120 -399q-120 -167 -356 -167q-237 0 -357 176t-109 418h813zM540 80q149 0 239 110q91 110 108 267h-684q4 -157 96 -267
t241 -110z" />
    <glyph glyph-name="Adieresismacron" unicode="&#x1de;" horiz-adv-x="1290" 
d="M309 1874v92h672v-92h-672zM756 1565v207h139v-207h-139zM395 1565v207h137v-207h-137zM575 1462h156l574 -1462h-150l-178 455h-666l-176 -455h-147zM354 573h576l-283 750z" />
    <glyph glyph-name="adieresismacron" unicode="&#x1df;" 
d="M219 1499v92h672v-92h-672zM666 1198v207h139v-207h-139zM305 1198v207h137v-207h-137zM799 578h-4q-16 -31 -104 -46q-87 -16 -174 -27q-322 -41 -322 -203q1 -107 69 -166q69 -58 154 -58q169 0 275 91t106 241v168zM111 733q23 354 420 354t397 -339v-562
q0 -78 76 -77q23 0 40 8v-109q-46 -8 -89 -8q-122 0 -141 110q-5 34 -5 74h-4q-78 -114 -159 -163q-80 -49 -226 -50q-245 0 -327 169q-27 58 -27 154t49 158t130 95t182 46t174 21t104 14q92 19 93 126q2 185 -168 216q-50 9 -108 9q-122 0 -200 -58t-82 -188h-129z" />
    <glyph glyph-name="Adotmacron" unicode="&#x1e0;" horiz-adv-x="1290" 
d="M309 1874v92h672v-92h-672zM575 1565v207h140v-207h-140zM575 1462h156l574 -1462h-150l-178 455h-666l-176 -455h-147zM354 573h576l-283 750z" />
    <glyph glyph-name="adotmacron" unicode="&#x1e1;" 
d="M219 1499v92h672v-92h-672zM485 1198v207h140v-207h-140zM799 578h-4q-16 -31 -104 -46q-87 -16 -174 -27q-322 -41 -322 -203q1 -107 69 -166q69 -58 154 -58q169 0 275 91t106 241v168zM111 733q23 354 420 354t397 -339v-562q0 -78 76 -77q23 0 40 8v-109
q-46 -8 -89 -8q-122 0 -141 110q-5 34 -5 74h-4q-78 -114 -159 -163q-80 -49 -226 -50q-245 0 -327 169q-27 58 -27 154t49 158t130 95t182 46t174 21t104 14q92 19 93 126q2 185 -168 216q-50 9 -108 9q-122 0 -200 -58t-82 -188h-129z" />
    <glyph glyph-name="AEmacron" unicode="&#x1e2;" horiz-adv-x="1857" 
d="M864 1581v92h672v-92h-672zM1051 119h759v-119h-899v463h-530l-238 -463h-155l764 1462h1050v-119h-751v-528h704v-119h-704v-577zM911 582v761h-82l-387 -761h469z" />
    <glyph glyph-name="aemacron" unicode="&#x1e3;" horiz-adv-x="1781" 
d="M557 1198v92h672v-92h-672zM1593 602q0 152 -93 265q-93 112 -243 112t-243 -112q-92 -112 -86 -265h665zM799 578h-4q-16 -31 -104 -46q-87 -16 -174 -27q-322 -41 -322 -203q1 -107 69 -166q69 -58 154 -58q169 0 275 91t106 241v168zM522 979q-122 0 -200 -58
t-82 -188h-129q23 354 428 354q216 0 306 -108q36 -43 46 -111h4q38 106 141 162q103 57 232 57t216 -49q242 -136 238 -544h-794q-13 -180 78 -298t266 -118q254 0 313 264h129q-41 -180 -158 -275t-303 -96q-293 0 -387 265h-4q-22 -125 -163 -199q-120 -64 -279 -66
q-245 0 -327 169q-27 58 -27 154t49 158t130 95t182 46t174 21t104 14q92 19 93 126q2 185 -168 216q-50 9 -108 9z" />
    <glyph glyph-name="Gcaron" unicode="&#x1e6;" horiz-adv-x="1517" 
d="M434 1884h131l176 -209l181 209h118l-233 -289h-141zM1397 0h-101l-18 266h-4q-71 -150 -202 -221q-131 -72 -304 -73q-172 0 -302 62t-216 166q-172 209 -172 530t172 533q86 105 216 167t274 63q393 0 563 -274q55 -90 75 -211h-139q-13 137 -144 251
q-131 115 -327 115q-274 0 -421 -202q-130 -177 -130 -440t130 -442q149 -202 421 -202q238 0 374 149t132 388h-498v118h621v-743z" />
    <glyph glyph-name="gcaron" unicode="&#x1e7;" horiz-adv-x="1138" 
d="M240 1487h131l176 -209l180 209h119l-234 -289h-141zM283 251q96 -130 258 -130t254 123t92 298t-85 306t-256 131t-265 -137q-82 -116 -82 -298t84 -293zM1016 86q0 -375 -251 -471q-89 -35 -193 -35q-200 0 -326 82t-137 238h129q27 -162 204 -200q51 -11 105 -11
q180 0 260 102t80 295v143h-4q-45 -98 -132 -157q-87 -60 -209 -60q-235 -1 -354 151q-120 151 -119 385t128 388q127 153 350 151q172 0 283 -131q34 -39 53 -82h4v183h129v-971z" />
    <glyph glyph-name="Kcaron" unicode="&#x1e8;" horiz-adv-x="1327" 
d="M449 1853h131l176 -208l180 208h119l-234 -288h-141zM147 1462h140v-786l850 786h188l-653 -604l684 -858h-180l-609 762l-280 -260v-502h-140v1462z" />
    <glyph glyph-name="kcaron" unicode="&#x1e9;" horiz-adv-x="1024" 
d="M279 1853h131l176 -208l180 208h119l-234 -288h-141zM123 1462h129v-917l586 512h172l-451 -391l481 -666h-161l-418 575l-209 -174v-401h-129v1462z" />
    <glyph glyph-name="Oogonek" unicode="&#x1ea;" horiz-adv-x="1517" 
d="M761 -455q-198 0 -198 168q0 81 110 179q42 38 110 80q-12 0 -23 -1q-172 1 -302 63t-216 166q-172 209 -172 530t172 533q86 105 216 167t302 63q329 0 516 -230q172 -210 172 -532t-164 -520t-410 -232q-148 -116 -175 -204q-7 -27 -7 -65t28 -62t62 -23q65 0 113 84
l59 -26q-81 -138 -193 -138zM339 1172q-130 -177 -130 -440t130 -442q149 -202 421 -202t419 202q130 177 130 441t-130 441q-149 202 -421 202t-419 -202z" />
    <glyph glyph-name="oogonek" unicode="&#x1eb;" horiz-adv-x="1138" 
d="M572 -455q-112 0 -154 47t-43 124q0 77 109 176q42 38 111 80q-13 -1 -26 -1q-234 0 -368 161q-133 161 -132 398t134 397t364 160q232 0 373 -165q129 -156 129 -394t-129 -393q-106 -128 -272 -155h18q-147 -115 -175 -205q-7 -27 -7 -65t28 -62t62 -23q65 0 113 84
l59 -26q-82 -138 -194 -138zM570 78q92 0 161 39q137 76 185 247q24 80 24 164q0 177 -98 314t-273 137q-91 0 -161 -39q-135 -76 -185 -243q-49 -167 0 -335q49 -169 185 -245q70 -39 162 -39z" />
    <glyph glyph-name="Oogonekmacron" unicode="&#x1ec;" horiz-adv-x="1517" 
d="M422 1595v93h672v-93h-672zM761 -455q-198 0 -198 168q0 81 110 179q42 38 110 80q-12 0 -23 -1q-172 1 -302 63t-216 166q-172 209 -172 530t172 533q86 105 216 167t302 63q329 0 516 -230q172 -210 172 -532t-164 -520t-410 -232q-148 -116 -175 -204q-7 -27 -7 -65
t28 -62t62 -23q65 0 113 84l59 -26q-81 -138 -193 -138zM339 1172q-130 -177 -130 -440t130 -442q149 -202 421 -202t419 202q130 177 130 441t-130 441q-149 202 -421 202t-419 -202z" />
    <glyph glyph-name="oogonekmacron" unicode="&#x1ed;" horiz-adv-x="1138" 
d="M233 1198v92h672v-92h-672zM572 -455q-112 0 -154 47t-43 124q0 77 109 176q42 38 111 80q-13 -1 -26 -1q-234 0 -368 161q-133 161 -132 398t134 397t364 160q232 0 373 -165q129 -156 129 -394t-129 -393q-106 -128 -272 -155h18q-147 -115 -175 -205q-7 -27 -7 -65
t28 -62t62 -23q65 0 113 84l59 -26q-82 -138 -194 -138zM570 78q92 0 161 39q137 76 185 247q24 80 24 164q0 177 -98 314t-273 137q-91 0 -161 -39q-135 -76 -185 -243q-49 -167 0 -335q49 -169 185 -245q70 -39 162 -39z" />
    <glyph glyph-name="jcaron" unicode="&#x1f0;" horiz-adv-x="378" 
d="M-113 1454h131l177 -209l180 209h119l-234 -289h-141zM254 -96q0 -296 -225 -293l-88 4v106q42 -5 67 -2q76 0 96 44t21 110v1184h129v-1153z" />
    <glyph glyph-name="DZ" unicode="&#x1f1;" horiz-adv-x="2578" 
d="M1479 1462h1052v-123l-962 -1220h983v-119h-1139v123l963 1220h-897v119zM287 119h297q318 1 460 143t142 470t-144 470q-144 143 -458 141h-297v-1224zM147 1462h506q334 -8 503 -187t169 -544t-169 -544t-503 -187h-506v1462z" />
    <glyph glyph-name="Dz" unicode="&#x1f2;" horiz-adv-x="2351" 
d="M2316 109v-109h-882v104l690 844h-643v109h807v-92l-699 -856h727zM287 119h297q318 1 460 143t142 470t-144 470q-144 143 -458 141h-297v-1224zM147 1462h506q334 -8 503 -187t169 -544t-169 -544t-503 -187h-506v1462z" />
    <glyph glyph-name="dz" unicode="&#x1f3;" horiz-adv-x="2123" 
d="M2089 109v-109h-883v104l690 844h-643v109h807v-92l-698 -856h727zM207 528q0 -294 188 -410q66 -40 163 -40t168 40q194 109 196 409t-196 412q-71 40 -168 40q-177 0 -270 -143q-81 -122 -81 -308zM1053 0h-119v201h-4q-41 -104 -148 -166t-229 -63q-121 -1 -210 43
q-174 86 -237 299q-29 101 -28 214q0 241 122 400t353 159q192 0 308 -131q38 -43 59 -100h4v606h129v-1462z" />
    <glyph glyph-name="Gacute" unicode="&#x1f4;" horiz-adv-x="1517" 
d="M760 1595h-105l215 289h160zM1397 0h-101l-18 266h-4q-71 -150 -202 -221q-131 -72 -304 -73q-172 0 -302 62t-216 166q-172 209 -172 530t172 533q86 105 216 167t274 63q393 0 563 -274q55 -90 75 -211h-139q-13 137 -144 251q-131 115 -327 115q-274 0 -421 -202
q-130 -177 -130 -440t130 -442q149 -202 421 -202q238 0 374 149t132 388h-498v118h621v-743z" />
    <glyph glyph-name="gacute" unicode="&#x1f5;" horiz-adv-x="1138" 
d="M547 1192h-105l215 289h160zM283 251q96 -130 258 -130t254 123t92 298t-85 306t-256 131t-265 -137q-82 -116 -82 -298t84 -293zM1016 86q0 -375 -251 -471q-89 -35 -193 -35q-200 0 -326 82t-137 238h129q27 -162 204 -200q51 -11 105 -11q180 0 260 102t80 295v143h-4
q-45 -98 -132 -157q-87 -60 -209 -60q-235 -1 -354 151q-120 151 -119 385t128 388q127 153 350 151q172 0 283 -131q34 -39 53 -82h4v183h129v-971z" />
    <glyph glyph-name="Ngrave" unicode="&#x1f8;" horiz-adv-x="1441" 
d="M449 1847h157l215 -288h-104zM145 1462h156l852 -1237h4v1237h139v-1462h-155l-852 1237h-4v-1237h-140v1462z" />
    <glyph glyph-name="ngrave" unicode="&#x1f9;" horiz-adv-x="1099" 
d="M287 1487h157l215 -289h-104zM121 1057h129v-183h4q37 96 131 154t206 59q311 0 370 -237q18 -76 18 -170v-680h-129v659q0 320 -268 320q-149 0 -239 -102q-91 -102 -93 -261v-616h-129v1057z" />
    <glyph glyph-name="Aringacute" unicode="&#x1fa;" horiz-adv-x="1290" 
d="M649 2093h-104l215 289h160zM645 1565q-91 0 -154 63t-63 157t64 156t154 62q91 -1 155 -65q63 -64 63 -154t-64 -155q-64 -64 -155 -64zM506 1784q0 -60 40 -100t99 -40t99 40t40 100t-40 99q-40 40 -99 40t-99 -40t-40 -99zM575 1462h156l574 -1462h-150l-178 455h-666
l-176 -455h-147zM354 573h576l-283 750z" />
    <glyph glyph-name="aringacute" unicode="&#x1fb;" 
d="M571 1731h-104l215 288h160zM338 1409q0 45 16 85t46 70t70 47t85 17t85 -17t70 -47t47 -70t17 -85t-17 -85t-47 -70t-70 -47t-85 -17t-85 17t-70 47t-46 70t-16 85zM416 1409q0 -59 40 -99t99 -40t99 40t40 99t-40 99t-99 40t-99 -40t-40 -99zM799 578h-4
q-16 -31 -104 -46q-87 -16 -174 -27q-322 -41 -322 -203q1 -107 69 -166q69 -58 154 -58q169 0 275 91t106 241v168zM111 733q23 354 420 354t397 -339v-562q0 -78 76 -77q23 0 40 8v-109q-46 -8 -89 -8q-122 0 -141 110q-5 34 -5 74h-4q-78 -114 -159 -163
q-80 -49 -226 -50q-245 0 -327 169q-27 58 -27 154t49 158t130 95t182 46t174 21t104 14q92 19 93 126q2 185 -168 216q-50 9 -108 9q-122 0 -200 -58t-82 -188h-129z" />
    <glyph glyph-name="AEacute" unicode="&#x1fc;" horiz-adv-x="1857" 
d="M1202 1552h-104l215 289h160zM1051 119h759v-119h-899v463h-530l-238 -463h-155l764 1462h1050v-119h-751v-528h704v-119h-704v-577zM911 582v761h-82l-387 -761h469z" />
    <glyph glyph-name="aeacute" unicode="&#x1fd;" horiz-adv-x="1781" 
d="M946 1198h-104l215 289h160zM1593 602q0 152 -93 265q-93 112 -243 112t-243 -112q-92 -112 -86 -265h665zM799 578h-4q-16 -31 -104 -46q-87 -16 -174 -27q-322 -41 -322 -203q1 -107 69 -166q69 -58 154 -58q169 0 275 91t106 241v168zM522 979q-122 0 -200 -58
t-82 -188h-129q23 354 428 354q216 0 306 -108q36 -43 46 -111h4q38 106 141 162q103 57 232 57t216 -49q242 -136 238 -544h-794q-13 -180 78 -298t266 -118q254 0 313 264h129q-41 -180 -158 -275t-303 -96q-293 0 -387 265h-4q-22 -125 -163 -199q-120 -64 -279 -66
q-245 0 -327 169q-27 58 -27 154t49 158t130 95t182 46t174 21t104 14q92 19 93 126q2 185 -168 216q-50 9 -108 9z" />
    <glyph glyph-name="Oslashacute" unicode="&#x1fe;" horiz-adv-x="1517" 
d="M793 1595h-105l215 289h160zM1179 290q130 177 130 437q0 261 -121 430l-813 -907q145 -162 385 -162q272 0 419 202zM339 1172q-130 -177 -130 -435t119 -430l815 907q-147 160 -383 160q-274 0 -421 -202zM1280 1260q168 -203 168 -527t-172 -532q-189 -228 -500 -229
q-312 -1 -489 180l-156 -175l-55 50l162 180q-168 207 -168 526q0 318 172 530q86 105 216 167t302 63q291 0 471 -180l145 160l54 -48z" />
    <glyph glyph-name="oslashacute" unicode="&#x1ff;" horiz-adv-x="1138" 
d="M557 1198h-104l215 289h159zM831 856q-101 123 -268 123q-168 0 -267 -136t-98 -306q1 -171 74 -285zM309 199q98 -121 267 -121q168 0 266 134t98 307q0 172 -72 284zM958 901q111 -157 111 -384q0 -226 -132 -386t-358 -160q-225 0 -354 138l-121 -129l-45 38l125 138
q-116 151 -115 381t134 390t359 160t356 -139l106 115l45 -41z" />
    <glyph glyph-name="Adblgrave" unicode="&#x200;" horiz-adv-x="1290" 
d="M985 1565h-102l-258 288h155zM668 1565h-105l-258 288h156zM575 1462h156l574 -1462h-150l-178 455h-666l-176 -455h-147zM354 573h576l-283 750z" />
    <glyph glyph-name="adblgrave" unicode="&#x201;" 
d="M895 1196h-102l-258 289h155zM578 1196h-105l-258 289h156zM799 578h-4q-16 -31 -104 -46q-87 -16 -174 -27q-322 -41 -322 -203q1 -107 69 -166q69 -58 154 -58q169 0 275 91t106 241v168zM111 733q23 354 420 354t397 -339v-562q0 -78 76 -77q23 0 40 8v-109
q-46 -8 -89 -8q-122 0 -141 110q-5 34 -5 74h-4q-78 -114 -159 -163q-80 -49 -226 -50q-245 0 -327 169q-27 58 -27 154t49 158t130 95t182 46t174 21t104 14q92 19 93 126q2 185 -168 216q-50 9 -108 9q-122 0 -200 -58t-82 -188h-129z" />
    <glyph glyph-name="Ainvertedbreve" unicode="&#x202;" horiz-adv-x="1290" 
d="M640 1825q124 0 203 -69t95 -191h-80q-12 80 -76 124t-122 44q-154 0 -207 -96q-18 -32 -21 -72h-80q10 125 87 193t201 67zM575 1462h156l574 -1462h-150l-178 455h-666l-176 -455h-147zM354 573h576l-283 750z" />
    <glyph glyph-name="ainvertedbreve" unicode="&#x203;" 
d="M570 1364q-150 0 -208 -95q-18 -32 -20 -73h-80q10 125 87 193q77 67 201 67t203 -68t95 -192h-80q-12 80 -76 124t-122 44zM799 578h-4q-16 -31 -104 -46q-87 -16 -174 -27q-322 -41 -322 -203q1 -107 69 -166q69 -58 154 -58q169 0 275 91t106 241v168zM111 733
q23 354 420 354t397 -339v-562q0 -78 76 -77q23 0 40 8v-109q-46 -8 -89 -8q-122 0 -141 110q-5 34 -5 74h-4q-78 -114 -159 -163q-80 -49 -226 -50q-245 0 -327 169q-27 58 -27 154t49 158t130 95t182 46t174 21t104 14q92 19 93 126q2 185 -168 216q-50 9 -108 9
q-122 0 -200 -58t-82 -188h-129z" />
    <glyph glyph-name="Edblgrave" unicode="&#x204;" horiz-adv-x="1214" 
d="M997 1565h-102l-258 288h156zM680 1565h-105l-258 288h156zM147 1462h1010v-119h-870v-528h815v-119h-815v-577h880v-119h-1020v1462z" />
    <glyph glyph-name="edblgrave" unicode="&#x205;" 
d="M883 1196h-103l-258 289h156zM565 1196h-104l-258 289h155zM199 494q0 -263 190 -377q66 -39 158 -39q141 0 221 74t111 196h129q-41 -180 -151 -278t-310 -99q-241 0 -360 160t-118 392q1 233 113 389q126 175 365 175q238 0 363 -185q111 -164 102 -408h-813zM199 602
h684q-4 152 -96 265q-92 112 -240 112t-240 -110q-93 -111 -108 -267z" />
    <glyph glyph-name="Einvertedbreve" unicode="&#x206;" horiz-adv-x="1214" 
d="M652 1825q124 0 203 -69t95 -191h-80q-12 80 -75 124t-122 44q-154 0 -208 -96q-18 -32 -21 -72h-79q10 125 87 193q76 68 200 67zM147 1462h1010v-119h-870v-528h815v-119h-815v-577h880v-119h-1020v1462z" />
    <glyph glyph-name="einvertedbreve" unicode="&#x207;" 
d="M558 1364q-153 0 -208 -95q-18 -32 -20 -73h-80q10 125 87 193q77 67 201 67t202 -68t96 -192h-80q-12 80 -76 124t-122 44zM199 494q0 -263 190 -377q66 -39 158 -39q141 0 221 74t111 196h129q-41 -180 -151 -278t-310 -99q-241 0 -360 160t-118 392q1 233 113 389
q126 175 365 175q238 0 363 -185q111 -164 102 -408h-813zM199 602h684q-4 152 -96 265q-92 112 -240 112t-240 -110q-93 -111 -108 -267z" />
    <glyph glyph-name="Idblgrave" unicode="&#x208;" horiz-adv-x="454" 
d="M567 1565h-102l-258 288h155zM250 1565h-105l-258 288h156zM158 1462h139v-1462h-139v1462z" />
    <glyph glyph-name="idblgrave" unicode="&#x209;" horiz-adv-x="378" 
d="M528 1165h-102l-258 289h156zM211 1165h-105l-258 289h156zM125 0v1057h129v-1057h-129z" />
    <glyph glyph-name="Iinvertedbreve" unicode="&#x20a;" horiz-adv-x="454" 
d="M222 1825q124 0 203 -69t95 -191h-80q-12 80 -75 124t-122 44q-154 0 -208 -96q-18 -32 -21 -72h-80q10 125 88 193q76 68 200 67zM158 1462h139v-1462h-139v1462z" />
    <glyph glyph-name="iinvertedbreve" unicode="&#x20b;" horiz-adv-x="378" 
d="M204 1333q-153 0 -208 -95q-18 -32 -21 -73h-79q10 125 87 193t201 68t202 -70q79 -68 95 -191h-80q-12 80 -75 124t-122 44zM125 0v1057h129v-1057h-129z" />
    <glyph glyph-name="Odblgrave" unicode="&#x20c;" horiz-adv-x="1517" 
d="M1098 1595h-103l-258 289h156zM780 1595h-104l-258 289h155zM760 1493q329 0 516 -230q172 -210 172 -532t-172 -530q-189 -228 -516 -230q-172 1 -302 63t-216 166q-172 209 -172 530t172 533q86 105 216 167t302 63zM339 1172q-130 -177 -130 -440t130 -442
q149 -202 421 -202t419 202q130 177 130 441t-130 441q-149 202 -421 202t-419 -202z" />
    <glyph glyph-name="odblgrave" unicode="&#x20d;" horiz-adv-x="1138" 
d="M909 1196h-102l-258 289h156zM592 1196h-105l-258 289h156zM940 922q129 -156 129 -394t-132 -397q-131 -160 -367 -160q-235 0 -369 161q-133 161 -132 398t134 397t364 160q232 0 373 -165zM570 78q92 0 161 39q137 76 185 247q24 80 24 164q0 177 -98 314t-273 137
q-91 0 -161 -39q-135 -76 -185 -243q-49 -167 0 -335q49 -169 185 -245q70 -39 162 -39z" />
    <glyph glyph-name="Oinvertedbreve" unicode="&#x20e;" horiz-adv-x="1517" 
d="M774 1763q-153 0 -209 -95q-18 -32 -20 -73h-80q10 125 87 193t201 68q125 0 203 -70q78 -68 95 -191h-80q-11 80 -75 124t-122 44zM760 1493q329 0 516 -230q172 -210 172 -532t-172 -530q-189 -228 -516 -230q-172 1 -302 63t-216 166q-172 209 -172 530t172 533
q86 105 216 167t302 63zM339 1172q-130 -177 -130 -440t130 -442q149 -202 421 -202t419 202q130 177 130 441t-130 441q-149 202 -421 202t-419 -202z" />
    <glyph glyph-name="oinvertedbreve" unicode="&#x20f;" horiz-adv-x="1138" 
d="M585 1364q-153 0 -208 -95q-18 -32 -21 -73h-80q10 125 88 193q78 67 200 67q124 0 203 -68t95 -192h-80q-12 80 -75 124t-122 44zM940 922q129 -156 129 -394t-132 -397q-131 -160 -367 -160q-235 0 -369 161q-133 161 -132 398t134 397t364 160q232 0 373 -165zM570 78
q92 0 161 39q137 76 185 247q24 80 24 164q0 177 -98 314t-273 137q-91 0 -161 -39q-135 -76 -185 -243q-49 -167 0 -335q49 -169 185 -245q70 -39 162 -39z" />
    <glyph glyph-name="Rdblgrave" unicode="&#x210;" horiz-adv-x="1366" 
d="M1063 1565h-102l-259 288h156zM745 1565h-104l-258 288h156zM147 1462h670q303 0 409 -210q36 -74 36 -192t-72 -220t-213 -131v-4q196 -27 238 -208q17 -72 22 -207q8 -222 63 -290h-153q-23 39 -28 91q-5 53 -7 83t-5 81q-11 184 -51 264q-68 137 -241 130h-528v-649
h-140v1462zM287 768h520q135 0 226 79t90 210t-79 209t-237 77h-520v-575z" />
    <glyph glyph-name="rdblgrave" unicode="&#x211;" horiz-adv-x="645" 
d="M723 1186h-102l-259 289h156zM406 1186h-105l-258 289h156zM123 1057h119v-248h4q49 129 152 199t247 63v-129q-172 8 -283 -101q-110 -108 -110 -278v-563h-129v1057z" />
    <glyph glyph-name="Rinvertedbreve" unicode="&#x212;" horiz-adv-x="1366" 
d="M718 1825q124 0 203 -69t95 -191h-80q-12 80 -76 124t-122 44q-152 0 -208 -96q-18 -32 -20 -72h-80q10 125 87 193t201 67zM147 1462h670q303 0 409 -210q36 -74 36 -192t-72 -220t-213 -131v-4q196 -27 238 -208q17 -72 22 -207q8 -222 63 -290h-153q-23 39 -28 91
q-5 53 -7 83t-5 81q-11 184 -51 264q-68 137 -241 130h-528v-649h-140v1462zM287 768h520q135 0 226 79t90 210t-79 209t-237 77h-520v-575z" />
    <glyph glyph-name="rinvertedbreve" unicode="&#x213;" horiz-adv-x="645" 
d="M378 1446q124 0 203 -69t95 -191h-80q-12 80 -76 124t-122 44q-152 0 -208 -96q-18 -32 -20 -72h-80q10 124 87 192t201 68zM123 1057h119v-248h4q49 129 152 199t247 63v-129q-172 8 -283 -101q-110 -108 -110 -278v-563h-129v1057z" />
    <glyph glyph-name="Udblgrave" unicode="&#x214;" horiz-adv-x="1402" 
d="M1040 1565h-102l-258 288h156zM723 1565h-105l-258 288h156zM133 1462h139v-905q0 -362 248 -443q80 -26 181 -26q211 0 321 112t108 357v905h140v-936q0 -243 -140 -399t-430 -156q-289 0 -435 164q-132 145 -132 391v936z" />
    <glyph glyph-name="udblgrave" unicode="&#x215;" horiz-adv-x="1099" 
d="M889 1165h-103l-258 289h156zM571 1165h-104l-258 289h156zM121 371v686h129v-688q4 -143 66 -217t217 -74t241 131q74 112 76 293v555h129v-1057h-119v190h-4q-51 -106 -148 -162t-216 -57q-371 0 -371 400z" />
    <glyph glyph-name="Uinvertedbreve" unicode="&#x216;" horiz-adv-x="1402" 
d="M696 1825q124 0 202 -69q79 -69 95 -191h-80q-12 80 -75 124t-122 44q-154 0 -208 -96q-18 -32 -21 -72h-79q10 125 87 193t201 67zM133 1462h139v-905q0 -362 248 -443q80 -26 181 -26q211 0 321 112t108 357v905h140v-936q0 -243 -140 -399t-430 -156q-289 0 -435 164
q-132 145 -132 391v936z" />
    <glyph glyph-name="uinvertedbreve" unicode="&#x217;" horiz-adv-x="1099" 
d="M564 1333q-153 0 -208 -95q-18 -32 -20 -73h-80q10 125 87 193t201 68t202 -70q78 -68 96 -191h-80q-12 80 -76 124t-122 44zM121 371v686h129v-688q4 -143 66 -217t217 -74t241 131q74 112 76 293v555h129v-1057h-119v190h-4q-51 -106 -148 -162t-216 -57
q-371 0 -371 400z" />
    <glyph glyph-name="Scommaaccent" unicode="&#x218;" horiz-adv-x="1290" 
d="M733 -344q0 -149 -101 -238q-34 -29 -81 -41v88q45 13 73 76t23 117h-86v217h172v-219zM1077 385q0 114 -99 182q-69 49 -202 82l-325 80q-154 39 -230 107q-102 93 -100 245q0 253 252 368q97 44 229 44q250 0 407 -120q156 -120 156 -335h-139q-8 159 -123 248
q-115 90 -276 88q-250 0 -336 -153q-31 -55 -31 -122q0 -156 136 -212q40 -16 85 -27l357 -88q272 -70 349 -231q30 -63 30 -154q0 -135 -82 -242q-133 -174 -477 -174q-130 0 -240 30q-228 62 -308 249q-42 96 -36 231h139q-7 -388 477 -393q143 0 251 69q136 84 136 228z
" />
    <glyph glyph-name="scommaaccent" unicode="&#x219;" horiz-adv-x="985" 
d="M584 -344q0 -93 -34 -151t-68 -87t-81 -41v88q45 13 73 77t24 116h-86v217h172v-219zM229 801q0 -108 148 -161q39 -13 72 -22l172 -38q198 -29 274 -172q27 -51 27 -129q0 -79 -39 -139q-107 -166 -390 -168q-181 -1 -297 87t-133 283h130q8 -131 95 -198t216 -66
q180 0 261 107q28 37 28 89q0 126 -147 172q-42 14 -85 25l-166 37q-135 34 -215 97q-80 62 -80 199t129 216q109 67 269 67q260 0 352 -190q31 -63 35 -149h-129q-2 59 -25 103q-67 128 -242 128t-237 -96q-23 -35 -23 -82z" />
    <glyph glyph-name="Tcommaaccent" unicode="&#x21a;" horiz-adv-x="1138" 
d="M662 -315q0 -148 -102 -238q-34 -29 -81 -41v88q45 13 73 76t23 117h-86v217h173v-219zM-8 1462h1157v-119h-510v-1343h-139v1343h-508v119z" />
    <glyph glyph-name="tcommaaccent" unicode="&#x21b;" horiz-adv-x="606" 
d="M371 -326q0 -93 -34 -151q-34 -59 -68 -87t-81 -40v88q45 13 73 77t24 115h-86v218h172v-220zM199 948h-185v109h185v317h129v-317h215v-109h-215v-712q0 -64 17 -100t79 -38t119 4v-108l-115 -4q-129 0 -180 50t-49 185v723z" />
    <glyph glyph-name="Hcaron" unicode="&#x21e;" horiz-adv-x="1441" 
d="M418 1853h131l176 -208l180 208h119l-233 -288h-142zM147 1462h140v-635h868v635h139v-1462h-139v709h-868v-709h-140v1462z" />
    <glyph glyph-name="hcaron" unicode="&#x21f;" horiz-adv-x="1099" 
d="M246 1853h131l176 -208l180 208h119l-234 -288h-141zM121 1462h129v-588h4q37 96 131 154t206 59q311 0 370 -237q18 -76 18 -170v-680h-129v659q0 320 -268 320q-149 0 -239 -102q-91 -102 -93 -261v-616h-129v1462z" />
    <glyph glyph-name="Adotaccent" unicode="&#x226;" horiz-adv-x="1290" 
d="M575 1565v207h140v-207h-140zM575 1462h156l574 -1462h-150l-178 455h-666l-176 -455h-147zM354 573h576l-283 750z" />
    <glyph glyph-name="adotaccent" unicode="&#x227;" 
d="M485 1198v207h140v-207h-140zM799 578h-4q-16 -31 -104 -46q-87 -16 -174 -27q-322 -41 -322 -203q1 -107 69 -166q69 -58 154 -58q169 0 275 91t106 241v168zM111 733q23 354 420 354t397 -339v-562q0 -78 76 -77q23 0 40 8v-109q-46 -8 -89 -8q-122 0 -141 110
q-5 34 -5 74h-4q-78 -114 -159 -163q-80 -49 -226 -50q-245 0 -327 169q-27 58 -27 154t49 158t130 95t182 46t174 21t104 14q92 19 93 126q2 185 -168 216q-50 9 -108 9q-122 0 -200 -58t-82 -188h-129z" />
    <glyph glyph-name="Ecedilla" unicode="&#x228;" horiz-adv-x="1214" 
d="M619 -340q129 0 129 88q0 76 -106 78q-52 0 -87 -16l-33 30l125 160h-500v1462h1010v-119h-870v-528h815v-119h-815v-577h880v-119h-448l-90 -117q151 25 214 -51q23 -29 23 -76q-1 -88 -68 -132q-68 -44 -137 -44q-130 0 -210 43l26 66q79 -29 142 -29z" />
    <glyph glyph-name="ecedilla" unicode="&#x229;" 
d="M633 -278q0 82 -105 83q-51 0 -88 -16l-32 31l118 152q-225 6 -342 162t-115 389q1 233 113 389q126 175 365 175q238 0 363 -185q111 -164 102 -408h-813q0 -263 190 -377q66 -39 158 -39q141 0 221 74t111 196h129q-80 -351 -409 -375l-85 -110q154 25 214 -51
q24 -29 24 -76q0 -87 -68 -131q-68 -45 -138 -45q-130 0 -210 43l26 65q76 -28 140 -28q131 0 131 82zM199 602h684q-4 152 -96 265q-92 112 -240 112t-240 -110q-93 -111 -108 -267z" />
    <glyph glyph-name="Odieresismacron" unicode="&#x22a;" horiz-adv-x="1517" 
d="M422 1905v92h672v-92h-672zM868 1595v207h140v-207h-140zM508 1595v207h137v-207h-137zM760 1493q329 0 516 -230q172 -210 172 -532t-172 -530q-189 -228 -516 -230q-172 1 -302 63t-216 166q-172 209 -172 530t172 533q86 105 216 167t302 63zM339 1172
q-130 -177 -130 -440t130 -442q149 -202 421 -202t419 202q130 177 130 441t-130 441q-149 202 -421 202t-419 -202z" />
    <glyph glyph-name="odieresismacron" unicode="&#x22b;" horiz-adv-x="1138" 
d="M233 1499v92h672v-92h-672zM680 1198v207h139v-207h-139zM319 1198v207h138v-207h-138zM940 922q129 -156 129 -394t-132 -397q-131 -160 -367 -160q-235 0 -369 161q-133 161 -132 398t134 397t364 160q232 0 373 -165zM570 78q92 0 161 39q137 76 185 247q24 80 24 164
q0 177 -98 314t-273 137q-91 0 -161 -39q-135 -76 -185 -243q-49 -167 0 -335q49 -169 185 -245q70 -39 162 -39z" />
    <glyph glyph-name="Otildemacron" unicode="&#x22c;" horiz-adv-x="1517" 
d="M422 1903v92h672v-92h-672zM895 1702q79 0 106 98h78q-22 -130 -106 -177q-31 -17 -86 -17t-143 47t-127 47t-69 -27t-30 -78h-80q9 81 44 122q64 75 133 75q68 0 158 -45q34 -17 64 -31t58 -14zM760 1493q329 0 516 -230q172 -210 172 -532t-172 -530
q-189 -228 -516 -230q-172 1 -302 63t-216 166q-172 209 -172 530t172 533q86 105 216 167t302 63zM339 1172q-130 -177 -130 -440t130 -442q149 -202 421 -202t419 202q130 177 130 441t-130 441q-149 202 -421 202t-419 -202z" />
    <glyph glyph-name="otildemacron" unicode="&#x22d;" horiz-adv-x="1138" 
d="M233 1497v92h672v-92h-672zM707 1305q77 0 106 98h78q-22 -131 -105 -176q-83 -46 -227 28q-91 47 -131 47q-39 1 -69 -26t-29 -78h-80q14 127 109 179q68 36 140 9t126 -54q53 -27 82 -27zM940 922q129 -156 129 -394t-132 -397q-131 -160 -367 -160q-235 0 -369 161
q-133 161 -132 398t134 397t364 160q232 0 373 -165zM570 78q92 0 161 39q137 76 185 247q24 80 24 164q0 177 -98 314t-273 137q-91 0 -161 -39q-135 -76 -185 -243q-49 -167 0 -335q49 -169 185 -245q70 -39 162 -39z" />
    <glyph glyph-name="Odotaccent" unicode="&#x22e;" horiz-adv-x="1517" 
d="M688 1595v207h139v-207h-139zM760 1493q329 0 516 -230q172 -210 172 -532t-172 -530q-189 -228 -516 -230q-172 1 -302 63t-216 166q-172 209 -172 530t172 533q86 105 216 167t302 63zM339 1172q-130 -177 -130 -440t130 -442q149 -202 421 -202t419 202
q130 177 130 441t-130 441q-149 202 -421 202t-419 -202z" />
    <glyph glyph-name="odotaccent" unicode="&#x22f;" horiz-adv-x="1138" 
d="M500 1198v207h139v-207h-139zM940 922q129 -156 129 -394t-132 -397q-131 -160 -367 -160q-235 0 -369 161q-133 161 -132 398t134 397t364 160q232 0 373 -165zM570 78q92 0 161 39q137 76 185 247q24 80 24 164q0 177 -98 314t-273 137q-91 0 -161 -39
q-135 -76 -185 -243q-49 -167 0 -335q49 -169 185 -245q70 -39 162 -39z" />
    <glyph glyph-name="Odotaccentmacron" unicode="&#x230;" horiz-adv-x="1517" 
d="M422 1905v92h672v-92h-672zM688 1595v207h139v-207h-139zM760 1493q329 0 516 -230q172 -210 172 -532t-172 -530q-189 -228 -516 -230q-172 1 -302 63t-216 166q-172 209 -172 530t172 533q86 105 216 167t302 63zM339 1172q-130 -177 -130 -440t130 -442
q149 -202 421 -202t419 202q130 177 130 441t-130 441q-149 202 -421 202t-419 -202z" />
    <glyph glyph-name="odotaccentmacron" unicode="&#x231;" horiz-adv-x="1138" 
d="M233 1499v92h672v-92h-672zM500 1198v207h139v-207h-139zM940 922q129 -156 129 -394t-132 -397q-131 -160 -367 -160q-235 0 -369 161q-133 161 -132 398t134 397t364 160q232 0 373 -165zM570 78q92 0 161 39q137 76 185 247q24 80 24 164q0 177 -98 314t-273 137
q-91 0 -161 -39q-135 -76 -185 -243q-49 -167 0 -335q49 -169 185 -245q70 -39 162 -39z" />
    <glyph glyph-name="Ymacron" unicode="&#x232;" horiz-adv-x="1251" 
d="M291 1565v92h672v-92h-672zM694 0h-139v602l-573 860h163l482 -741l479 741h166l-578 -860v-602z" />
    <glyph glyph-name="ymacron" unicode="&#x233;" horiz-adv-x="948" 
d="M137 1167v93h672v-93h-672zM206 -281q94 0 144 99q14 31 31 67l45 119l-422 1053h137l348 -901l326 901h129l-459 -1217q-59 -138 -98 -172q-39 -35 -79 -46t-112 -9t-87 8v109q63 -11 97 -11z" />
    <glyph glyph-name="uni0237" unicode="&#x237;" horiz-adv-x="378" 
d="M254 -96q0 -296 -225 -293l-88 4v106q42 -5 67 -2q76 0 96 44t21 110v1184h129v-1153z" />
    <glyph glyph-name="uni0259" unicode="&#x259;" horiz-adv-x="1083" 
d="M885 459h-684q4 -157 96 -267q93 -110 241 -110q149 0 239 110q90 109 108 267zM885 567q0 264 -191 377q-66 39 -157 39q-141 0 -221 -74t-111 -196h-129q41 180 150 278q110 98 311 99q242 0 359 -159q118 -159 118 -392t-120 -399q-120 -167 -358 -167t-366 186
q-115 167 -104 408h819z" />
    <glyph glyph-name="commaturnedmod" unicode="&#x2bb;" horiz-adv-x="569" 
d="M195 965v219q0 153 102 237q35 29 80 41v-88q-45 -17 -73 -77q-28 -61 -23 -115h86v-217h-172z" />
    <glyph glyph-name="afii57929" unicode="&#x2bc;" horiz-adv-x="569" 
d="M375 1462v-219q0 -153 -102 -237q-34 -29 -80 -41v88q69 20 93 138q5 30 3 54h-86v217h172z" />
    <glyph glyph-name="circumflex" unicode="&#x2c6;" horiz-adv-x="378" 
d="M494 1204h-134l-176 209l-180 -209h-117l232 289h141z" />
    <glyph glyph-name="caron" unicode="&#x2c7;" horiz-adv-x="378" 
d="M-113 1493h131l177 -209l180 209h119l-234 -289h-141z" />
    <glyph glyph-name="uni02C9.macronCopy" unicode="&#x2c9;" horiz-adv-x="378" 
d="M-145 1391h671v-93h-671v93z" />
    <glyph glyph-name="breve" unicode="&#x2d8;" horiz-adv-x="378" 
d="M206 1311q58 0 122 44q63 44 75 124h80q-16 -123 -95 -192t-203 -69q-125 0 -201 68t-86 193h79q2 -41 21 -73q53 -95 208 -95z" />
    <glyph glyph-name="dotaccent" unicode="&#x2d9;" horiz-adv-x="378" 
d="M121 1239v207h139v-207h-139z" />
    <glyph glyph-name="ring" unicode="&#x2da;" horiz-adv-x="378" 
d="M-27 1386q0 92 63 155t153 64q91 1 155 -63t65 -154q1 -91 -63 -155t-156 -65t-154 63q-63 63 -63 155zM51 1386q0 -59 40 -99t99 -40t100 40q40 40 40 99q0 60 -40 100t-100 40t-99 -40q-40 -40 -40 -100z" />
    <glyph glyph-name="ogonek" unicode="&#x2db;" horiz-adv-x="378" 
d="M118 -383q-42 47 -42 123t109 177q46 42 124 87h78q-149 -116 -175 -205q-7 -27 -7 -65q-1 -38 27 -61q28 -24 63 -23q64 0 113 84l59 -27q-81 -137 -194 -137t-155 47z" />
    <glyph glyph-name="tilde" unicode="&#x2dc;" horiz-adv-x="378" 
d="M326 1352q77 0 106 98h78q-22 -131 -107 -177q-84 -46 -225 30q-89 46 -129 46q-41 1 -71 -26t-29 -78h-80q14 127 109 179q68 36 140 9t126 -54q53 -27 82 -27z" />
    <glyph glyph-name="hungarumlaut" unicode="&#x2dd;" horiz-adv-x="378" 
d="M-66 1204l205 289h156l-258 -289h-103zM252 1204l207 289h155l-258 -289h-104z" />
    <glyph glyph-name="uni02EE" unicode="&#x2ee;" horiz-adv-x="757" 
d="M627 1462v-219q0 -93 -34 -151t-68 -86t-81 -41v88q70 21 94 138q5 30 3 54h-86v217h172zM311 1462v-219q0 -151 -101 -237q-34 -29 -81 -41v88q46 14 73 76q27 63 23 116h-86v217h172z" />
    <glyph glyph-name="gravecmb" unicode="&#x300;" horiz-adv-x="0" 
d="M-281 1493l215 -289h-104l-268 289h157z" />
    <glyph glyph-name="acutecmb" unicode="&#x301;" horiz-adv-x="0" 
d="M-309 1204l215 289h160l-271 -289h-104z" />
    <glyph glyph-name="circumflexcmb" unicode="&#x302;" horiz-adv-x="0" 
d="M-16 1204l-177 209l-180 -209h-116l231 289h141l234 -289h-133z" />
    <glyph glyph-name="tildecmb" unicode="&#x303;" horiz-adv-x="0" 
d="M-51 1352q77 0 106 98h78q-22 -130 -106 -177q-85 -47 -226 30q-89 46 -129 46q-40 1 -70 -26t-30 -78h-80q14 128 110 179q67 36 139 9t126 -54q53 -27 82 -27z" />
    <glyph glyph-name="macroncmb" unicode="&#x304;" horiz-adv-x="0" 
d="M-522 1391h672v-93h-672v93z" />
    <glyph glyph-name="brevecmb" unicode="&#x306;" horiz-adv-x="0" 
d="M-170 1311q58 0 121 44t76 124h79q-16 -123 -95 -192t-203 -69t-200 68q-77 68 -87 193h80q2 -41 20 -73q54 -95 209 -95z" />
    <glyph glyph-name="dotaccentcmb" unicode="&#x307;" horiz-adv-x="0" 
d="M-256 1446h139v-207h-139v207z" />
    <glyph glyph-name="dieresiscmb" unicode="&#x308;" horiz-adv-x="0" 
d="M-76 1446h139v-207h-139v207zM-436 1446h137v-207h-137v207z" />
    <glyph glyph-name="hookabovecomb" unicode="&#x309;" horiz-adv-x="0" 
d="M-354 1405q80 43 180 43q99 0 147 -32t68 -64t20 -80q1 -47 -23 -76q-61 -76 -214 -51l-12 -76h-72l-23 119l33 31q36 -17 88 -17q104 -1 105 78q0 48 -33 68t-100 20t-138 -29z" />
    <glyph glyph-name="ringcmb" unicode="&#x30a;" horiz-adv-x="0" 
d="M-341 1541q62 62 155 64q92 1 154 -63q63 -64 64 -154q1 -91 -63 -155t-154 -65q-91 -2 -155 62t-63 156q0 92 62 155zM-326 1386q0 -59 40 -99t100 -40t99 40q40 40 40 99q0 60 -40 100t-99 40t-100 -40q-40 -41 -40 -100z" />
    <glyph glyph-name="hungarumlautcmb" unicode="&#x30b;" horiz-adv-x="0" 
d="M-238 1493h156l-258 -289h-102zM82 1493h156l-258 -289h-105z" />
    <glyph glyph-name="caroncmb" unicode="&#x30c;" horiz-adv-x="0" 
d="M-358 1493l176 -209l180 209h119l-234 -289h-141l-231 289h131z" />
    <glyph glyph-name="uni030F" unicode="&#x30f;" horiz-adv-x="0" 
d="M238 1204h-103l-258 289h156zM-80 1204h-104l-258 289h155z" />
    <glyph glyph-name="uni0311" unicode="&#x311;" horiz-adv-x="0" 
d="M-191 1479q125 0 203 -69t94 -191h-79q-11 79 -75 123t-122 44q-155 0 -209 -95q-18 -32 -20 -72h-80q10 125 87 193t201 67z" />
    <glyph glyph-name="uni0312" unicode="&#x312;" horiz-adv-x="0" 
d="M-90 1184q0 153 102 237q35 29 80 41v-88q-45 -17 -73 -77q-28 -61 -23 -115h86v-217h-172v219z" />
    <glyph glyph-name="uni0313" unicode="&#x313;" horiz-adv-x="0" 
d="M92 1243q0 -151 -101 -237q-34 -29 -81 -41v88q46 14 73 76q27 63 23 116h-86v217h172v-219z" />
    <glyph glyph-name="uni0314" unicode="&#x314;" horiz-adv-x="0" 
d="M-90 1462h172v-217h-86q-8 -95 51 -163q18 -22 45 -29v-88q-87 22 -134 102q-48 80 -48 176v219z" />
    <glyph glyph-name="uni0316" unicode="&#x316;" horiz-adv-x="0" 
d="M-29 31l215 -289h-104l-268 289h157z" />
    <glyph glyph-name="uni0317" unicode="&#x317;" horiz-adv-x="0" 
d="M-186 -258l215 289h159l-270 -289h-104z" />
    <glyph glyph-name="uni031B" unicode="&#x31b;" horiz-adv-x="0" 
d="M340 1462h119q0 -206 -47 -281t-185 -75q-164 0 -288 223l43 19q39 -35 77 -77q63 -69 150 -70t109 67t22 194z" />
    <glyph glyph-name="dotbelowcomb" unicode="&#x323;" horiz-adv-x="0" 
d="M-70 -16h140v-207h-140v207z" />
    <glyph glyph-name="uni0324" unicode="&#x324;" horiz-adv-x="0" 
d="M111 -16h139v-207h-139v207zM-250 -16h137v-207h-137v207z" />
    <glyph glyph-name="uni0325" unicode="&#x325;" horiz-adv-x="0" 
d="M0 143q91 0 155 -64t64 -156q-1 -92 -65 -155t-155 -63q-91 -1 -154 63q-62 64 -62 156t63 156q63 63 154 63zM-139 -76q0 -59 40 -99t99 -40t99 40t40 99q0 60 -40 100t-99 40t-99 -41q-40 -40 -40 -99z" />
    <glyph glyph-name="uni0326" unicode="&#x326;" horiz-adv-x="0" 
d="M92 -219q0 -149 -101 -238q-34 -29 -81 -41v88q45 13 73 76t23 117h-86v217h172v-219z" />
    <glyph glyph-name="cedillacmb" unicode="&#x327;" horiz-adv-x="0" 
d="M-219 -340q129 0 129 88q0 76 -105 78q-51 0 -88 -16l-32 30l125 160h71l-90 -117q154 25 214 -51q24 -29 24 -76q-1 -87 -69 -131q-68 -45 -137 -45q-130 0 -210 43l27 66q78 -29 141 -29z" />
    <glyph glyph-name="ogonekcmb" unicode="&#x328;" horiz-adv-x="0" 
d="M-103 -430q-198 0 -198 168q0 79 110 179q46 42 123 87h78q-149 -116 -175 -205q-7 -27 -7 -65t28 -61q28 -24 62 -23q67 0 113 84l59 -27q-81 -137 -193 -137z" />
    <glyph glyph-name="uni032D.circumflexBelowComb" unicode="&#x32d;" horiz-adv-x="0" 
d="M-379 -449l-176 209l-180 -209h-117l231 289h142l233 -289h-133z" />
    <glyph glyph-name="uni032E.breveBelowComb" unicode="&#x32e;" horiz-adv-x="0" 
d="M-739 -247q53 -95 207 -95q58 0 122 44q63 44 76 124h80q-16 -123 -95 -192q-79 -68 -203 -68t-201 68t-87 192h80q2 -41 21 -73z" />
    <glyph glyph-name="uni0330.tildeBelowComb" unicode="&#x330;" horiz-adv-x="0" 
d="M-416 -301q78 0 107 98h78q-22 -129 -107 -177q-31 -17 -85 -17t-142 47q-89 47 -129 47q-39 0 -69 -27t-30 -78h-79q14 128 109 180q32 17 85 17q53 -1 113 -31q61 -30 91 -44t58 -15z" />
    <glyph glyph-name="uni0331.macronBelowComb" unicode="&#x331;" horiz-adv-x="0" 
d="M-881 -262h672v-92h-672v92z" />
    <glyph glyph-name="soliduslongoverlaycmb" unicode="&#x338;" horiz-adv-x="0" 
d="M-76 1493h105l-625 -1522h-109z" />
    <glyph glyph-name="uni0340.graveToneComb" unicode="&#x340;" horiz-adv-x="0" 
d="M-682 1493l215 -289h-104l-269 289h158z" />
    <glyph glyph-name="uni0341.acuteToneComb" unicode="&#x341;" horiz-adv-x="0" 
d="M-676 1204l215 289h160l-270 -289h-105z" />
    <glyph glyph-name="uni0344.diaeresisTonosComb" unicode="&#x344;" horiz-adv-x="0" 
d="M-356 1221v206h139v-206h-139zM-565 1174h-105l113 288h160zM-827 1221v206h139v-206h-139z" />
    <glyph glyph-name="uni037E.semicolonGreek" unicode="&#x37e;" horiz-adv-x="569" 
d="M371 0q0 -93 -34 -151q-62 -105 -147 -128v89q42 13 71 77q29 63 24 113h-86v217h172v-217zM199 1024h172v-217h-172v217z" />
    <glyph glyph-name="uni0384.tonos" unicode="&#x384;" horiz-adv-x="378" 
d="M158 1174h-105l113 288h160z" />
    <glyph glyph-name="uni0385.diaeresisTonos" unicode="&#x385;" horiz-adv-x="694" 
d="M512 1221v206h139v-206h-139zM303 1174h-104l112 288h160zM41 1221v206h139v-206h-139z" />
    <glyph glyph-name="uni0386.AlphaTonos" unicode="&#x386;" horiz-adv-x="1331" 
d="M772 1462l574 -1462h-150l-178 455h-666l-176 -455h-147l587 1462h156zM971 573l-283 750l-293 -750h576zM143 1174h-104l113 288h159z" />
    <glyph glyph-name="uni0387.anoteleia" unicode="&#x387;" horiz-adv-x="569" 
d="M199 637v217h172v-217h-172z" />
    <glyph glyph-name="uni0388.EpsilonTonos" unicode="&#x388;" horiz-adv-x="1445" 
d="M1389 1462v-119h-871v-528h815v-119h-815v-577h881v-119h-1020v1462h1010zM133 1174h-104l112 288h160z" />
    <glyph glyph-name="uni0389.EtaTonos" unicode="&#x389;" horiz-adv-x="1673" 
d="M518 1462v-635h868v635h140v-1462h-140v709h-868v-709h-139v1462h139zM133 1174h-104l112 288h160z" />
    <glyph glyph-name="uni038A.IotaTonos" unicode="&#x38a;" horiz-adv-x="686" 
d="M528 1462v-1462h-139v1462h139zM133 1174h-104l112 288h160z" />
    <glyph glyph-name="uni038C.OmicronTonos" unicode="&#x38c;" horiz-adv-x="1667" 
d="M909 1493q329 0 516 -230q172 -210 172 -532t-172 -530q-189 -228 -516 -230q-172 1 -302 63t-216 166q-172 209 -172 530t172 533q86 105 216 167t302 63zM488 1172q-130 -177 -130 -440t130 -442q149 -202 421 -202t419 202q130 177 130 441t-130 441
q-149 202 -421 202t-419 -202zM133 1174h-104l112 288h160z" />
    <glyph glyph-name="uni038E.UpsilonTonos" unicode="&#x38e;" horiz-adv-x="1605" 
d="M1049 0h-140v602l-573 860h164l481 -741l479 741h166l-577 -860v-602zM133 1174h-104l112 288h160z" />
    <glyph glyph-name="uni038F.OmegaTonos" unicode="&#x38f;" horiz-adv-x="1742" 
d="M1677 0h-514v98q177 117 282 328q105 210 103 418q0 245 -143 388q-144 142 -398 142t-399 -141t-145 -370t104 -437t281 -328v-98h-514v119h319v8q-217 174 -296 482q-27 109 -27 251t49 262t138 203q89 82 213 125t276 43q306 0 490 -170q185 -170 185 -497
q0 -326 -203 -578q-58 -72 -120 -121v-8h319v-119zM133 1174h-104l112 288h160z" />
    <glyph glyph-name="uni0390.iotaDiaeresisTonos" unicode="&#x390;" horiz-adv-x="489" 
d="M426 1221v206h139v-206h-139zM217 1174h-104l112 288h160zM-45 1221v206h139v-206h-139zM319 0q-98 0 -130 52t-31 143v862h129v-871q0 -78 75 -77q23 0 41 8v-109q-46 -8 -84 -8z" />
    <glyph glyph-name="uni0391.Alpha" unicode="&#x391;" horiz-adv-x="1290" 
d="M731 1462l574 -1462h-150l-178 455h-666l-176 -455h-147l587 1462h156zM930 573l-283 750l-293 -750h576z" />
    <glyph glyph-name="uni0392.Beta" unicode="&#x392;" horiz-adv-x="1366" 
d="M766 119q385 0 385 301q0 141 -99 212t-286 70h-479v-583h479zM766 1462q326 0 430 -187q39 -69 39 -149q0 -206 -151 -307q-46 -31 -103 -43v-4q141 -18 225 -116t84 -240q0 -315 -320 -394q-85 -22 -204 -22h-619v1462h619zM766 821q158 0 243 70t87 178
q0 274 -330 274h-479v-522h479z" />
    <glyph glyph-name="uni0393.Gamma" unicode="&#x393;" horiz-adv-x="1099" 
d="M147 1462h928v-119h-788v-1343h-140v1462z" />
    <glyph glyph-name="uni0394.Delta" unicode="&#x394;" horiz-adv-x="1380" 
d="M27 0l571 1462h170l588 -1462h-1329zM682 1290l-436 -1143h880z" />
    <glyph glyph-name="uni0395.Epsilon" unicode="&#x395;" horiz-adv-x="1214" 
d="M1157 1462v-119h-870v-528h815v-119h-815v-577h880v-119h-1020v1462h1010z" />
    <glyph glyph-name="uni0396.Zeta" unicode="&#x396;" horiz-adv-x="1175" 
d="M1128 1462v-123l-962 -1220h983v-119h-1139v123l963 1220h-897v119h1052z" />
    <glyph glyph-name="uni0397.Eta" unicode="&#x397;" horiz-adv-x="1441" 
d="M287 1462v-635h868v635h139v-1462h-139v709h-868v-709h-140v1462h140z" />
    <glyph glyph-name="uni0398.Theta" unicode="&#x398;" horiz-adv-x="1517" 
d="M420 676v119h676v-119h-676zM242 200q-172 210 -172 530t172 533q86 105 216 167t302 63q329 0 516 -230q172 -209 172 -531t-180 -542t-509 -220q-330 -1 -517 230zM339 1172q-130 -177 -130 -440t130 -442q149 -202 421 -202t419 202q130 177 130 441t-130 441
q-149 202 -421 202t-419 -202z" />
    <glyph glyph-name="uni0399.Iota" unicode="&#x399;" horiz-adv-x="454" 
d="M297 1462v-1462h-139v1462h139z" />
    <glyph glyph-name="uni039A.Kappa" unicode="&#x39a;" horiz-adv-x="1327" 
d="M287 1462v-786l850 786h188l-653 -604l684 -858h-180l-609 762l-280 -260v-502h-140v1462h140z" />
    <glyph glyph-name="uni039B.Lambda" unicode="&#x39b;" horiz-adv-x="1290" 
d="M575 1462h156l574 -1462h-150l-508 1323l-512 -1323h-149z" />
    <glyph glyph-name="uni039C.Mu" unicode="&#x39c;" horiz-adv-x="1705" 
d="M1563 1462v-1462h-140v1264h-4l-499 -1264h-132l-501 1264h-4v-1264h-140v1462h205l506 -1282l504 1282h205z" />
    <glyph glyph-name="uni039D.Nu" unicode="&#x39d;" horiz-adv-x="1441" 
d="M1157 225v1237h139v-1462h-155l-852 1237h-4v-1237h-140v1462h156l852 -1237h4z" />
    <glyph glyph-name="uni039E.Xi" unicode="&#x39e;" horiz-adv-x="1202" 
d="M123 696v119h956v-119h-956zM68 1343v119h1067v-119h-1067zM57 0v119h1088v-119h-1088z" />
    <glyph glyph-name="uni039F.Omicron" unicode="&#x39f;" horiz-adv-x="1517" 
d="M760 1493q329 0 516 -230q172 -210 172 -532t-172 -530q-189 -228 -516 -230q-172 1 -302 63t-216 166q-172 209 -172 530t172 533q86 105 216 167t302 63zM339 1172q-130 -177 -130 -440t130 -442q149 -202 421 -202t419 202q130 177 130 441t-130 441
q-149 202 -421 202t-419 -202z" />
    <glyph glyph-name="uni03A0.Pi" unicode="&#x3a0;" horiz-adv-x="1441" 
d="M147 1462h1147v-1462h-139v1343h-868v-1343h-140v1462z" />
    <glyph glyph-name="uni03A1.Rho" unicode="&#x3a1;" horiz-adv-x="1290" 
d="M797 1462q200 0 317 -111t117 -307t-118 -307q-118 -112 -316 -110h-510v-627h-140v1462h650zM766 745q145 0 235 74q91 73 91 225t-90 226t-236 73h-479v-598h479z" />
    <glyph glyph-name="uni03A3.Sigma" unicode="&#x3a3;" horiz-adv-x="1153" 
d="M1106 119v-119h-1020v129l608 637l-608 563v133h1010v-119h-846l604 -571l-621 -653h873z" />
    <glyph glyph-name="uni03A4.Tau" unicode="&#x3a4;" horiz-adv-x="1138" 
d="M1149 1462v-119h-510v-1343h-139v1343h-508v119h1157z" />
    <glyph glyph-name="uni03A5.Upsilon" unicode="&#x3a5;" horiz-adv-x="1251" 
d="M694 0h-139v602l-573 860h163l482 -741l479 741h166l-578 -860v-602z" />
    <glyph glyph-name="uni03A6.Phi" unicode="&#x3a6;" horiz-adv-x="1517" 
d="M182 762q0 -211 126 -342t380 -146v953q-256 -12 -381 -133t-125 -332zM1333 762q0 211 -125 332t-381 133v-953q254 14 380 146t126 342zM688 1524h139v-178q313 -14 479 -168t167 -418q0 -264 -170 -426q-170 -163 -476 -178v-156h-139v156q-307 16 -476 178
q-169 163 -169 425q0 263 166 418t479 169v178z" />
    <glyph glyph-name="uni03A7.Chi" unicode="&#x3a7;" horiz-adv-x="1175" 
d="M170 1462l414 -612l428 612h155l-499 -712l528 -750h-168l-444 645l-451 -645h-156l525 754l-496 708h164z" />
    <glyph glyph-name="uni03A8.Psi" unicode="&#x3a8;" horiz-adv-x="1607" 
d="M733 1462h139v-1026q333 16 426 244q37 88 37 215v567h140v-598q0 -244 -156 -389t-447 -158v-317h-139v319q-289 17 -444 159q-156 142 -156 386v598h139v-567q0 -353 310 -432q70 -18 151 -25v1024z" />
    <glyph glyph-name="Omegagreek" unicode="&#x3a9;" horiz-adv-x="1548" 
d="M121 119h403v168q-188 53 -296 210q-109 157 -107 355q0 271 192 448t463 177t458 -175q89 -83 141 -198q52 -116 52 -232q0 -221 -106 -376q-106 -156 -297 -209v-168h403v-119h-514v373q182 32 280 160q99 128 97 317q0 218 -147 363t-365 145t-369 -145t-151 -363
q0 -287 214 -420q71 -43 163 -57v-373h-514v119z" />
    <glyph glyph-name="uni03AA.IotaDiaeresis" unicode="&#x3aa;" horiz-adv-x="454" 
d="M338 1851h139v-206h-139v206zM-23 1851h138v-206h-138v206zM297 1462v-1462h-139v1462h139z" />
    <glyph glyph-name="uni03AB.UpsilonDiaeresis" unicode="&#x3ab;" horiz-adv-x="1251" 
d="M735 1851h139v-206h-139v206zM375 1851h137v-206h-137v206zM694 0h-139v602l-573 860h163l482 -741l479 741h166l-578 -860v-602z" />
    <glyph glyph-name="uni03AC.alphaTonos" unicode="&#x3ac;" horiz-adv-x="1212" 
d="M567 1174h-104l112 288h160zM207 529q0 -182 93 -316q93 -135 274 -135q180 0 278 134t97 317t-98 317q-97 133 -277 133t-274 -134q-93 -134 -93 -316zM1104 0q-87 0 -115 45q-29 45 -31 139v17h-4q-38 -101 -150 -165q-112 -65 -236 -66t-215 44t-152 122
q-123 155 -123 391t127 398t360 162q122 0 232 -62t147 -169h4v201h129v-871q0 -78 76 -77q23 0 41 8v-109q-46 -8 -90 -8z" />
    <glyph glyph-name="uni03AD.epsilonTonos" unicode="&#x3ad;" horiz-adv-x="1032" 
d="M516 1174h-104l112 288h160zM74 295q0 98 61 168q61 69 137 86v4q-66 19 -114 75t-49 139q0 150 118 235t294 85q177 0 283 -75q105 -76 130 -242h-129q-10 92 -76 150t-196 59q-129 0 -209 -52t-80 -149q0 -168 219 -168h166v-118h-162q-117 0 -178 -50t-62 -145
q0 -221 301 -221q141 0 227 75q85 75 99 187h127q-57 -367 -487 -369q-171 0 -286 73q-134 85 -134 253z" />
    <glyph glyph-name="uni03AE.etaTonos" unicode="&#x3ae;" horiz-adv-x="1099" 
d="M543 1174h-105l113 288h160zM121 1057h129v-183h4q37 96 131 154t206 59q311 0 370 -237q18 -76 18 -170v-1071h-129v1050q0 320 -268 320q-149 0 -239 -102q-91 -102 -93 -261v-616h-129v1057z" />
    <glyph glyph-name="uni03AF.iotaTonos" unicode="&#x3af;" horiz-adv-x="389" 
d="M182 1174h-104l112 288h160zM287 0q-98 0 -130 52t-32 143v862h129v-871q0 -78 76 -77q23 0 41 8v-109q-46 -8 -84 -8z" />
    <glyph glyph-name="uni03B0.upsilonDiaeresisTonos" unicode="&#x3b0;" horiz-adv-x="1069" 
d="M508 1174h-105l113 288h160zM870 519q0 258 -83 448q-24 55 -48 90h144q70 -121 105 -359q11 -82 11 -190q1 -108 -27 -210q-57 -212 -229 -289q-88 -40 -199 -40q-222 0 -323 94q-102 94 -100 308v686h129v-688q0 -143 64 -217t221 -74q92 0 155 33q180 94 180 408z" />
    <glyph glyph-name="uni03B1.alpha" unicode="&#x3b1;" horiz-adv-x="1212" 
d="M207 529q0 -182 93 -316q93 -135 274 -135q180 0 278 134t97 317t-98 317q-97 133 -277 133t-274 -134q-93 -134 -93 -316zM1104 0q-87 0 -115 45q-29 45 -31 139v17h-4q-38 -101 -150 -165q-112 -65 -236 -66t-215 44t-152 122q-123 155 -123 391t127 398t360 162
q122 0 232 -62t147 -169h4v201h129v-871q0 -78 76 -77q23 0 41 8v-109q-46 -8 -90 -8z" />
    <glyph glyph-name="uni03B2.beta" unicode="&#x3b2;" horiz-adv-x="1116" 
d="M918 428q0 189 -140 265q-103 59 -327 61v108q262 0 357 135q36 51 36 131q0 117 -77 187q-77 69 -227 69t-218 -76t-68 -223v-811q52 -71 113 -118q86 -63 211 -64q227 0 311 176q29 62 29 160zM125 1096q0 203 115 300t307 97t309 -95t117 -265q-1 -111 -61 -197
t-171 -111v-4q140 -11 222 -119t83 -241q2 -237 -128 -358t-333 -120q-204 1 -317 117q-8 8 -14 17v-508h-129v1487z" />
    <glyph glyph-name="uni03B3.gamma" unicode="&#x3b3;" horiz-adv-x="948" 
d="M502 -391h-129v285q0 298 -121 645q-90 258 -244 518h152q102 -156 200 -424q99 -269 119 -467h10q108 174 184 381t134 510h131q-100 -590 -436 -1082v-366z" />
    <glyph glyph-name="uni03B4.delta" unicode="&#x3b4;" horiz-adv-x="1138" 
d="M938 478q0 246 -203 375q-66 42 -151 81q-163 -30 -276 -152t-112 -300t99 -291t273 -113t277 120q93 109 93 280zM1067 493q0 -122 -33 -213q-69 -190 -253 -270q-93 -41 -214 -41t-214 38q-181 74 -253 264q-32 91 -32 205q1 219 133 363q109 121 280 165v8
q-209 94 -211 258q0 227 363 227q194 0 270 -55v-117q-90 62 -296 63t-208 -118q0 -54 31 -94t129 -98q97 -58 175 -95t138 -90q111 -99 153 -188q42 -90 42 -212z" />
    <glyph glyph-name="uni03B5.epsilon" unicode="&#x3b5;" horiz-adv-x="1032" 
d="M74 295q0 98 61 168q61 69 137 86v4q-66 19 -114 75t-49 139q0 150 118 235t294 85q177 0 283 -75q105 -76 130 -242h-129q-10 92 -76 150t-196 59q-129 0 -209 -52t-80 -149q0 -168 219 -168h166v-118h-162q-117 0 -178 -50t-62 -145q0 -221 301 -221q141 0 227 75
q85 75 99 187h127q-57 -367 -487 -369q-171 0 -286 73q-134 85 -134 253z" />
    <glyph glyph-name="uni03B6.zeta" unicode="&#x3b6;" horiz-adv-x="897" 
d="M645 109q225 0 225 -206q0 -109 -26 -218h-127q31 108 32 186q1 77 -29 103t-93 26h-86q-223 0 -347 142t-124 395q0 539 624 815h-528v110h721v-98q-336 -134 -516 -351t-172 -457t111 -344t276 -103h59z" />
    <glyph glyph-name="uni03B7.eta" unicode="&#x3b7;" horiz-adv-x="1099" 
d="M121 1057h129v-183h4q37 96 131 154t206 59q311 0 370 -237q18 -76 18 -170v-1071h-129v1050q0 320 -268 320q-149 0 -239 -102q-91 -102 -93 -261v-616h-129v1057z" />
    <glyph glyph-name="uni03B8.theta" unicode="&#x3b8;" horiz-adv-x="1175" 
d="M217 659q17 -581 371 -581q183 0 272 153q90 153 96 428h-739zM588 1384q-94 0 -163 -45q-195 -127 -208 -561h739q-13 431 -206 561q-68 45 -162 45zM1087 719q1 -750 -499 -750t-500 750q0 560 277 720q94 54 223 54q251 0 376 -206t123 -568z" />
    <glyph glyph-name="uni03B9.iota" unicode="&#x3b9;" horiz-adv-x="389" 
d="M287 0q-98 0 -130 52t-32 143v862h129v-871q0 -78 76 -77q23 0 41 8v-109q-46 -8 -84 -8z" />
    <glyph glyph-name="uni03BA.kappa" unicode="&#x3ba;" horiz-adv-x="1024" 
d="M252 1057v-512l586 512h172l-451 -391l481 -666h-161l-418 575l-209 -174v-401h-129v1057h129z" />
    <glyph glyph-name="uni03BB.lambda" unicode="&#x3bb;" horiz-adv-x="983" 
d="M167 1374q-64 0 -101 -14v108q35 14 97 14q116 1 173 -48t106 -185l414 -1097q10 -27 24 -35t41 -8q26 0 44 8v-109q-126 -22 -172 16q-29 24 -43 60l-271 760l-334 -844h-137l408 995l-78 209q-35 93 -60 119q-47 51 -111 51z" />
    <glyph glyph-name="uni03BC.mu" unicode="&#x3bc;" horiz-adv-x="1099" 
d="M252 -389h-131v1446h129v-688q4 -143 66 -217t217 -74t241 131q74 112 76 293v555h129v-1057h-119v190h-4q-51 -106 -148 -162t-229 -56t-227 69v-430z" />
    <glyph glyph-name="uni03BD.nu" unicode="&#x3bd;" horiz-adv-x="964" 
d="M483 129q240 465 328 928h133q-121 -545 -395 -1057h-137l-408 1057h143l332 -928h4z" />
    <glyph glyph-name="uni03BE.xi" unicode="&#x3be;" horiz-adv-x="911" 
d="M760 -128q0 72 -20 100t-89 28h-129q-208 0 -319 117t-111 289q0 287 268 370v4q-96 31 -156 115t-61 190q0 197 114 305t310 107q158 0 271 -53v-123q-121 68 -275 68q-155 0 -223 -72t-68 -209t68 -204q68 -66 258 -66h190v-119h-198q-201 0 -285 -81t-84 -218t94 -225
t250 -86h117q98 -1 148 -49t50 -168t-26 -207h-127q33 114 33 187z" />
    <glyph glyph-name="uni03BF.omicron" unicode="&#x3bf;" horiz-adv-x="1138" 
d="M940 922q129 -156 129 -394t-132 -397q-131 -160 -367 -160q-235 0 -369 161q-133 161 -132 398t134 397t364 160q232 0 373 -165zM570 78q92 0 161 39q137 76 185 247q24 80 24 164q0 177 -98 314t-273 137q-91 0 -161 -39q-135 -76 -185 -243q-49 -167 0 -335
q49 -169 185 -245q70 -39 162 -39z" />
    <glyph glyph-name="pi" unicode="&#x3c0;" horiz-adv-x="1224" 
d="M1030 -12q-57 0 -90 19q-58 33 -67 130q-3 43 -3 90v721h-536v-948h-129v948h-144v109h1094v-109h-156v-735q-1 -45 11 -78t60 -33t93 21v-100q-76 -35 -133 -35z" />
    <glyph glyph-name="uni03C1.rho" unicode="&#x3c1;" horiz-adv-x="1175" 
d="M969 528q0 185 -88 318t-258 133q-200 0 -293 -135q-78 -111 -78 -316q0 -298 198 -410q71 -40 168 -40q96 0 162 40q129 79 169 248q20 80 20 162zM123 518q0 253 120 411t365 158q244 0 367 -159q123 -160 123 -400t-122 -399q-122 -160 -353 -160q-190 0 -309 131
q-38 43 -58 101h-4v-592h-129v909z" />
    <glyph glyph-name="uni03C2.sigma1" unicode="&#x3c2;" 
d="M645 109q225 0 225 -206q0 -109 -26 -218h-127q31 108 32 186q1 77 -29 103t-93 26h-86q-219 0 -346 143t-126 383t134 401q133 160 366 160q170 0 288 -90t140 -272h-129q-58 254 -299 254q-174 0 -273 -136t-98 -316t103 -300t285 -118h59z" />
    <glyph glyph-name="uni03C3.sigma" unicode="&#x3c3;" horiz-adv-x="1165" 
d="M294 825q-98 -123 -96 -300q1 -177 99 -312t272 -135q175 0 273 134t98 312t-96 301t-274 123t-276 -123zM872 948q189 -155 189 -406t-129 -412t-362 -161t-368 162q-134 162 -133 397t132 382t368 147h570v-109h-267z" />
    <glyph glyph-name="uni03C4.tau" unicode="&#x3c4;" horiz-adv-x="903" 
d="M545 0q-98 0 -130 52t-32 143v753h-369v109h877v-109h-379v-762q0 -78 76 -77q23 0 41 8v-109q-46 -8 -84 -8z" />
    <glyph glyph-name="uni03C5.upsilon" unicode="&#x3c5;" horiz-adv-x="1069" 
d="M870 519q0 258 -83 448q-24 55 -48 90h144q70 -121 105 -359q11 -82 11 -190q1 -108 -27 -210q-57 -212 -229 -289q-88 -40 -199 -40q-222 0 -323 94q-102 94 -100 308v686h129v-688q0 -143 64 -217t221 -74q92 0 155 33q180 94 180 408z" />
    <glyph glyph-name="uni03C6.phi" unicode="&#x3c6;" horiz-adv-x="1349" 
d="M610 979q-184 0 -298 -135q-113 -135 -113 -314t112 -316q112 -136 299 -136v901zM739 78q188 0 300 136t112 314t-114 315q-114 136 -298 136v-901zM610 -31q-249 0 -396 161q-146 161 -145 399q1 237 146 397q145 161 395 161v277h129v-277q249 0 395 -160t146 -397
q0 -238 -145 -400q-145 -161 -396 -161v-360h-129v360z" />
    <glyph glyph-name="uni03C7.chi" unicode="&#x3c7;" horiz-adv-x="948" 
d="M549 379l426 -770h-150l-358 670l-365 -670h-139l428 776l-387 672h150l317 -572l334 572h139z" />
    <glyph glyph-name="uni03C8.psi" unicode="&#x3c8;" horiz-adv-x="1290" 
d="M1092 528q0 155 -38 301q-38 147 -93 228h143q74 -127 105 -359q51 -381 -120 -576q-136 -153 -372 -153v-360h-129v360q-335 0 -432 214q-35 77 -35 188v686h129v-688q0 -143 91 -217t247 -74v1286h129v-1286q187 4 281 124t94 326z" />
    <glyph glyph-name="uni03C9.omega" unicode="&#x3c9;" horiz-adv-x="1476" 
d="M199 519q0 -194 68 -317q68 -124 172 -124q103 0 169 74t66 217v458h129v-458q-1 -143 65 -217t170 -74t172 125t68 349q0 225 -83 415q-24 55 -48 90h143q71 -123 106 -359q11 -82 11 -190q0 -233 -99 -386q-101 -153 -282 -153q-211 0 -289 174q-78 -174 -286 -174
q-178 0 -281 152q-102 152 -101 398q1 245 78 453q20 54 39 85h144q-83 -116 -120 -365q-11 -80 -11 -173z" />
    <glyph glyph-name="uni03CA.iotaDiaeresis" unicode="&#x3ca;" horiz-adv-x="454" 
d="M338 1446h139v-207h-139v207zM-23 1446h138v-207h-138v207zM319 0q-98 0 -130 52t-31 143v862h129v-871q0 -78 75 -77q23 0 41 8v-109q-46 -8 -84 -8z" />
    <glyph glyph-name="uni03CB.upsilonDiaeresis" unicode="&#x3cb;" horiz-adv-x="1069" 
d="M621 1446h139v-207h-139v207zM260 1446h137v-207h-137v207zM870 519q0 258 -83 448q-24 55 -48 90h144q70 -121 105 -359q11 -82 11 -190q1 -108 -27 -210q-57 -212 -229 -289q-88 -40 -199 -40q-222 0 -323 94q-102 94 -100 308v686h129v-688q0 -143 64 -217t221 -74
q92 0 155 33q180 94 180 408z" />
    <glyph glyph-name="uni03CC.omicronTonos" unicode="&#x3cc;" horiz-adv-x="1138" 
d="M557 1174h-104l112 288h160zM940 922q129 -156 129 -394t-132 -397q-131 -160 -367 -160q-235 0 -369 161q-133 161 -132 398t134 397t364 160q232 0 373 -165zM570 78q92 0 161 39q137 76 185 247q24 80 24 164q0 177 -98 314t-273 137q-91 0 -161 -39
q-135 -76 -185 -243q-49 -167 0 -335q49 -169 185 -245q70 -39 162 -39z" />
    <glyph glyph-name="uni03CD.upsilonTonos" unicode="&#x3cd;" horiz-adv-x="1069" 
d="M510 1174h-104l112 288h160zM870 519q0 258 -83 448q-24 55 -48 90h144q70 -121 105 -359q11 -82 11 -190q1 -108 -27 -210q-57 -212 -229 -289q-88 -40 -199 -40q-222 0 -323 94q-102 94 -100 308v686h129v-688q0 -143 64 -217t221 -74q92 0 155 33q180 94 180 408z" />
    <glyph glyph-name="uni03CE.omegaTonos" unicode="&#x3ce;" horiz-adv-x="1476" 
d="M727 1174h-104l112 288h160zM199 519q0 -194 68 -317q68 -124 172 -124q103 0 169 74t66 217v458h129v-458q-1 -143 65 -217t170 -74t172 125t68 349q0 225 -83 415q-24 55 -48 90h143q71 -123 106 -359q11 -82 11 -190q0 -233 -99 -386q-101 -153 -282 -153
q-211 0 -289 174q-78 -174 -286 -174q-178 0 -281 152q-102 152 -101 398q1 245 78 453q20 54 39 85h144q-83 -116 -120 -365q-11 -80 -11 -173z" />
    <glyph glyph-name="uni0400" unicode="&#x400;" horiz-adv-x="1214" 
d="M578 1868l215 -289h-105l-268 289h158zM147 1462h1010v-119h-870v-528h815v-119h-815v-577h880v-119h-1020v1462z" />
    <glyph glyph-name="afii10023" unicode="&#x401;" horiz-adv-x="1214" 
d="M778 1821h140v-207h-140v207zM418 1821h137v-207h-137v207zM147 1462h1010v-119h-870v-528h815v-119h-815v-577h880v-119h-1020v1462z" />
    <glyph glyph-name="afii10051" unicode="&#x402;" horiz-adv-x="1568" 
d="M934 104q205 0 303 98t98 271q0 174 -104 259t-276 85t-265 -109q-92 -110 -92 -321v-387h-139v1343h-469v119h1159v-119h-551v-620h6q72 154 277 198q59 13 141 13t172 -30q88 -30 152 -88q132 -120 131 -349q0 -229 -140 -358t-372 -129q-59 0 -119 8v121q58 -5 88 -5z
" />
    <glyph glyph-name="afii10052" unicode="&#x403;" horiz-adv-x="1052" 
d="M487 1579l215 289h160l-270 -289h-105zM160 1462h903v-119h-764v-1343h-139v1462z" />
    <glyph glyph-name="afii10053" unicode="&#x404;" horiz-adv-x="1423" 
d="M70 718q0 334 174 546q86 104 213 166t262 63q252 0 427 -129t200 -344h-140q-35 166 -157 260q-123 94 -304 94q-221 0 -368 -153q-146 -154 -166 -408h770v-117h-774q8 -279 157 -444q149 -164 386 -164q296 0 417 251q37 77 54 169h137q-36 -248 -197 -393
q-161 -144 -425 -144q-138 -1 -263 53q-255 109 -354 392q-49 139 -49 302z" />
    <glyph glyph-name="afii10054" unicode="&#x405;" horiz-adv-x="1290" 
d="M1077 385q0 114 -99 182q-69 49 -202 82l-325 80q-333 81 -330 352q0 253 252 368q97 44 229 44q250 0 407 -120q156 -120 156 -335h-139q-8 159 -123 249t-276 87q-250 0 -336 -153q-31 -55 -31 -123q0 -155 136 -211q40 -16 85 -27l357 -88q273 -70 349 -232
q30 -65 30 -148q-1 -83 -25 -144q-52 -127 -159 -192q-139 -85 -394 -85t-416 126t-149 384h139q-7 -388 477 -393q143 0 251 69q136 84 136 228z" />
    <glyph glyph-name="afii10055" unicode="&#x406;" horiz-adv-x="454" 
d="M158 1462h139v-1462h-139v1462z" />
    <glyph glyph-name="afii10056" unicode="&#x407;" horiz-adv-x="454" 
d="M338 1821h139v-207h-139v207zM-23 1821h138v-207h-138v207zM158 1462h139v-1462h-139v1462z" />
    <glyph glyph-name="afii10057" unicode="&#x408;" horiz-adv-x="1024" 
d="M447 -29q-123 0 -202 42q-150 80 -186 270q-16 90 -16 186h139q2 -47 6 -113t29 -125q61 -143 246 -143q158 0 216 85t58 294v995h140v-1054q0 -227 -96 -331q-98 -106 -334 -106z" />
    <glyph glyph-name="afii10058" unicode="&#x409;" horiz-adv-x="2297" 
d="M1774 119q154 0 240 81t85 222q0 141 -86 222t-239 81h-480v-606h480zM194 -6q-46 -6 -100 -6t-102 16v119q28 -14 76 -14t78 5q70 11 132 137q117 237 117 1004v207h899v-618h510q205 0 320 -113q114 -113 114 -309t-114 -310q-114 -112 -320 -112h-649v1343h-625v-79
q0 -1049 -244 -1229q-46 -35 -92 -41z" />
    <glyph glyph-name="afii10059" unicode="&#x40a;" horiz-adv-x="2297" 
d="M1774 119q154 0 240 81t85 222q0 141 -86 222t-239 81h-480v-606h480zM147 1462h140v-618h868v618h139v-618h510q205 0 320 -113q114 -113 114 -309t-114 -310q-114 -112 -320 -112h-649v725h-868v-725h-140v1462z" />
    <glyph glyph-name="afii10060" unicode="&#x40b;" horiz-adv-x="1568" 
d="M459 1343h-469v119h1159v-119h-551v-497q103 50 294 80q56 8 99 8q274 0 381 -136q74 -94 74 -284v-514h-139v506q1 127 -41 185q-87 122 -248 122q-160 0 -340 -59q-49 -16 -80 -35v-719h-139v1343z" />
    <glyph glyph-name="afii10061" unicode="&#x40c;" horiz-adv-x="1327" 
d="M578 1579l215 289h159l-270 -289h-104zM147 1462h140v-786l850 786h188l-653 -604l684 -858h-180l-609 762l-280 -260v-502h-140v1462z" />
    <glyph glyph-name="uni040D" unicode="&#x40d;" horiz-adv-x="1454" 
d="M598 1868l215 -289h-104l-269 289h158zM147 1462h140v-1312l839 1312h181v-1462h-140v1313l-839 -1313h-181v1462z" />
    <glyph glyph-name="afii10062" unicode="&#x40e;" horiz-adv-x="1204" 
d="M629 1583q-129 0 -201 69t-88 197h80q10 -78 64 -123t144 -45t147 44q56 44 73 124h80q-47 -266 -299 -266zM262 -16q-74 0 -131 20v123q63 -23 145 -24q83 -1 135 49t101 153l18 39l-542 1118h149l475 -970l463 970h148l-576 -1192q-119 -248 -265 -277q-46 -9 -120 -9z
" />
    <glyph glyph-name="afii10145" unicode="&#x40f;" horiz-adv-x="1421" 
d="M641 0h-494v1462h140v-1343h848v1343h139v-1462h-494v-389h-139v389z" />
    <glyph glyph-name="afii10017" unicode="&#x410;" horiz-adv-x="1290" 
d="M930 573l-283 750l-293 -750h576zM575 1462h156l574 -1462h-150l-178 455h-666l-176 -455h-147z" />
    <glyph glyph-name="afii10018" unicode="&#x411;" horiz-adv-x="1366" 
d="M807 119q154 0 240 81t86 222t-86 222t-240 81h-520v-606h520zM147 1462h1010v-119h-870v-499h551q206 0 320 -113t114 -309t-115 -310q-115 -112 -319 -112h-691v1462z" />
    <glyph glyph-name="afii10019" unicode="&#x412;" horiz-adv-x="1366" 
d="M766 821q158 0 243 70t87 178q0 274 -330 274h-479v-522h479zM766 119q271 0 354 153q31 57 31 148q0 141 -99 212t-286 70h-479v-583h479zM147 1462h619q326 0 430 -187q39 -69 39 -149q0 -206 -151 -307q-46 -31 -103 -43v-4q141 -18 225 -116t84 -248q0 -151 -84 -252
q-125 -156 -440 -156h-619v1462z" />
    <glyph glyph-name="afii10020" unicode="&#x413;" horiz-adv-x="1052" 
d="M160 1462h903v-119h-764v-1343h-139v1462z" />
    <glyph glyph-name="afii10021" unicode="&#x414;" horiz-adv-x="1466" 
d="M1137 119v1224h-627v-49q0 -367 -24 -543q-51 -382 -185 -632h836zM0 119h154q193 354 212 885q5 141 5 266v192h905v-1343h174v-508h-139v389h-1172v-389h-139v508z" />
    <glyph glyph-name="afii10022" unicode="&#x415;" horiz-adv-x="1214" 
d="M147 1462h1010v-119h-870v-528h815v-119h-815v-577h880v-119h-1020v1462z" />
    <glyph glyph-name="afii10024" unicode="&#x416;" horiz-adv-x="2027" 
d="M944 1462h139v-770l721 770h189l-607 -631l658 -831h-180l-576 729l-205 -213v-516h-139v516l-205 213l-575 -729h-180l657 831l-606 631h188l721 -770v770z" />
    <glyph glyph-name="afii10025" unicode="&#x417;" horiz-adv-x="1284" 
d="M674 -31q-427 0 -552 290q-40 93 -40 210v12h133q0 -203 125 -301t319 -98t302 100t108 234t-94 213q-94 78 -238 80h-233v118h233q122 0 208 68q87 68 86 198q-1 131 -103 213q-91 70 -252 70q-277 0 -374 -187q-32 -62 -38 -145h-135q12 220 159 335q148 114 374 114
t366 -100t141 -297q0 -165 -137 -267q-39 -29 -78 -43v-6q117 -32 186 -118t68 -234q0 -68 -27 -147q-63 -180 -259 -266q-104 -46 -248 -46z" />
    <glyph glyph-name="afii10026" unicode="&#x418;" horiz-adv-x="1454" 
d="M147 1462h140v-1312l839 1312h181v-1462h-140v1313l-839 -1313h-181v1462z" />
    <glyph glyph-name="afii10027" unicode="&#x419;" horiz-adv-x="1454" 
d="M715 1583q-129 0 -201 69t-88 197h80q10 -78 64 -123t144 -45t147 44q56 44 73 124h80q-47 -266 -299 -266zM147 0v1462h140v-1312l839 1312h181v-1462h-140v1313l-839 -1313h-181z" />
    <glyph glyph-name="afii10028" unicode="&#x41a;" horiz-adv-x="1327" 
d="M147 1462h140v-786l850 786h188l-653 -604l684 -858h-180l-609 762l-280 -260v-502h-140v1462z" />
    <glyph glyph-name="afii10029" unicode="&#x41b;" horiz-adv-x="1441" 
d="M194 -6q-46 -6 -100 -6t-102 16v119q28 -14 76 -14t78 5q70 11 132 137q117 237 117 1004v207h899v-1462h-139v1343h-625v-79q0 -1049 -244 -1229q-46 -35 -92 -41z" />
    <glyph glyph-name="afii10030" unicode="&#x41c;" horiz-adv-x="1705" 
d="M143 1462h205l506 -1282l504 1282h205v-1462h-140v1264h-4l-499 -1264h-132l-501 1264h-4v-1264h-140v1462z" />
    <glyph glyph-name="afii10031" unicode="&#x41d;" horiz-adv-x="1441" 
d="M147 1462h140v-635h868v635h139v-1462h-139v709h-868v-709h-140v1462z" />
    <glyph glyph-name="afii10032" unicode="&#x41e;" horiz-adv-x="1517" 
d="M1179 290q130 177 130 441t-130 441q-149 202 -421 202t-419 -202q-130 -177 -130 -440t130 -442q149 -202 421 -202t419 202zM242 200q-172 209 -172 530t172 533q86 105 216 167t302 63q329 0 516 -230q172 -210 172 -532t-172 -530q-190 -230 -516 -230
q-172 1 -302 63t-216 166z" />
    <glyph glyph-name="afii10033" unicode="&#x41f;" horiz-adv-x="1421" 
d="M147 1462h1127v-1462h-139v1343h-848v-1343h-140v1462z" />
    <glyph glyph-name="afii10034" unicode="&#x420;" horiz-adv-x="1290" 
d="M766 745q145 0 235 74q91 73 91 225t-90 226t-236 73h-479v-598h479zM147 1462h650q200 0 317 -111t117 -307t-118 -307q-118 -112 -316 -110h-510v-627h-140v1462z" />
    <glyph glyph-name="afii10035" unicode="&#x421;" horiz-adv-x="1441" 
d="M250 200q-172 209 -172 530t172 533q86 105 216 167t302 63q219 0 389 -126t199 -347h-139q-36 167 -162 261q-126 95 -279 94q-282 -2 -429 -203q-130 -177 -130 -440t130 -442q149 -202 421 -202q196 0 322 134t147 335h139q-14 -135 -63 -244q-155 -342 -567 -342
q-150 1 -280 63t-216 166z" />
    <glyph glyph-name="afii10036" unicode="&#x422;" horiz-adv-x="1138" 
d="M500 1343h-508v119h1157v-119h-510v-1343h-139v1343z" />
    <glyph glyph-name="afii10037" unicode="&#x423;" horiz-adv-x="1204" 
d="M262 -16q-74 0 -131 20v123q63 -23 145 -24q83 -1 135 49t101 153l18 39l-542 1118h149l475 -970l463 970h148l-576 -1192q-119 -248 -265 -277q-46 -9 -120 -9z" />
    <glyph glyph-name="afii10038" unicode="&#x424;" horiz-adv-x="1638" 
d="M889 248q272 16 411 142q140 126 140 354t-137 354t-414 137v-987zM199 744q0 -228 139 -354t412 -142v987q-276 -12 -414 -137q-138 -126 -137 -354zM750 1505h139v-155q321 -8 505 -171q183 -163 183 -438t-184 -438q-184 -164 -504 -168v-184h-139v184
q-319 4 -503 167t-185 438t183 439q184 163 505 171v155z" />
    <glyph glyph-name="afii10039" unicode="&#x425;" horiz-adv-x="1175" 
d="M502 754l-496 708h164l414 -612l428 612h155l-499 -712l528 -750h-168l-444 645l-451 -645h-156z" />
    <glyph glyph-name="afii10040" unicode="&#x426;" horiz-adv-x="1464" 
d="M1309 0h-1162v1462h140v-1343h848v1343h139v-1343h174v-508h-139v389z" />
    <glyph glyph-name="afii10041" unicode="&#x427;" horiz-adv-x="1290" 
d="M574 725q144 0 430 59v678h139v-1462h-139v666q-99 -25 -249 -44q-151 -18 -200 -18q-282 0 -393 136q-78 96 -78 284v438h139v-430q0 -129 41 -186q42 -57 104 -89t206 -32z" />
    <glyph glyph-name="afii10042" unicode="&#x428;" horiz-adv-x="2097" 
d="M147 1462h140v-1343h692v1343h139v-1343h692v1343h140v-1462h-1803v1462z" />
    <glyph glyph-name="afii10043" unicode="&#x429;" horiz-adv-x="2140" 
d="M1985 0h-1838v1462h140v-1343h692v1343h139v-1343h692v1343h140v-1343h174v-508h-139v389z" />
    <glyph glyph-name="afii10044" unicode="&#x42a;" horiz-adv-x="1574" 
d="M1051 119q153 0 239 81t86 222t-86 222t-239 81h-480v-606h480zM432 1343h-442v119h581v-618h510q205 0 320 -113t115 -309t-115 -310q-115 -112 -320 -112h-649v1343z" />
    <glyph glyph-name="afii10045" unicode="&#x42b;" horiz-adv-x="1732" 
d="M1446 1462h139v-1462h-139v1462zM766 119q154 0 240 81t86 222t-86 222t-240 81h-479v-606h479zM147 1462h140v-618h510q205 0 319 -113t115 -309q0 -196 -115 -310q-115 -112 -319 -112h-650v1462z" />
    <glyph glyph-name="afii10046" unicode="&#x42c;" horiz-adv-x="1290" 
d="M766 119q154 0 240 81t86 222t-86 222t-240 81h-479v-606h479zM147 1462h140v-618h510q205 0 319 -113t115 -309q0 -196 -115 -310q-115 -112 -319 -112h-650v1462z" />
    <glyph glyph-name="afii10047" unicode="&#x42d;" horiz-adv-x="1423" 
d="M690 -29q-266 0 -427 145t-197 392h137q52 -299 290 -389q81 -31 191 -31t208 43q199 88 279 313q41 113 46 252h-744v117h739q-20 250 -165 408q-145 153 -369 153q-180 0 -303 -94t-158 -260h-139q23 214 198 344q175 129 398 129q318 0 506 -229q174 -210 174 -544
t-188 -542q-90 -100 -212 -154q-124 -54 -264 -53z" />
    <glyph glyph-name="afii10048" unicode="&#x42e;" horiz-adv-x="2007" 
d="M1670 290q128 179 128 441q0 261 -128 441q-144 202 -402 202t-401 -202q-128 -179 -128 -440q0 -260 136 -452t394 -192t401 202zM1271 -29q-163 -1 -286 59q-246 119 -337 395q-44 132 -48 280h-313v-705h-140v1462h140v-639h317q26 288 200 479q175 191 479 191
t484 -230q170 -212 170 -532t-170 -530q-85 -104 -209 -167t-287 -63z" />
    <glyph glyph-name="afii10049" unicode="&#x42f;" horiz-adv-x="1290" 
d="M1004 745v598h-443q-154 -1 -244 -81t-90 -222t90 -218q90 -77 244 -77h443zM210 1351q122 113 320 111h613v-1462h-139v627h-328l-488 -627h-180l500 635q-185 8 -300 113q-120 109 -120 299q0 191 122 304z" />
    <glyph glyph-name="afii10065" unicode="&#x430;" 
d="M444 78q60 0 128 22t117 66q110 95 110 244v168h-4q-16 -31 -104 -46q-87 -16 -174 -27q-322 -41 -322 -205q0 -106 71 -166q67 -56 178 -56zM539 1087q389 0 389 -339v-562q0 -78 76 -77q25 0 40 8v-109q-46 -8 -89 -8q-122 0 -141 110q-5 34 -5 74h-4
q-78 -114 -160 -164q-82 -49 -225 -49q-245 0 -327 169q-27 58 -27 154t49 158t130 95t182 46t200 24t124 29q47 34 47 108q2 185 -168 216q-50 9 -108 9q-122 0 -200 -58t-82 -188h-129q12 187 128 271t300 83z" />
    <glyph glyph-name="afii10066" unicode="&#x431;" horiz-adv-x="1138" 
d="M940 517q0 193 -103 314t-260 120q-158 -1 -258 -119t-100 -313t101 -318t260 -123q78 0 144 32q136 65 189 229q27 81 27 178zM340 24q-250 142 -250 564t131 629q72 111 172 157t252 58l98 6q82 4 111 16t41 39h143q-16 -94 -83 -128t-201 -42l-156 -10
q-180 -12 -274 -129t-129 -363h6q53 106 157 171t222 65q224 0 357 -146q132 -146 132 -393t-134 -397q-135 -150 -372 -150q-129 -1 -223 53z" />
    <glyph glyph-name="afii10067" unicode="&#x432;" horiz-adv-x="1058" 
d="M590 600q111 0 167 47t56 127q0 174 -223 174h-340v-348h340zM590 500h-340v-391h340q266 0 264 200q0 191 -264 191zM983 295q0 -143 -96 -219t-283 -76h-483v1057h483q162 1 250 -63t88 -172q0 -208 -182 -261v-4q223 -39 223 -262z" />
    <glyph glyph-name="afii10068" unicode="&#x433;" horiz-adv-x="819" 
d="M133 1057h698v-109h-569v-948h-129v1057z" />
    <glyph glyph-name="afii10069" unicode="&#x434;" horiz-adv-x="1167" 
d="M408 874q0 -496 -138 -765h594v839h-456v-74zM283 918v139h710v-948h158v-445h-129v336h-881v-336h-129v445h125q146 271 146 809z" />
    <glyph glyph-name="afii10070" unicode="&#x435;" 
d="M199 602h684q-4 152 -96 265q-92 112 -240 112t-240 -110q-93 -111 -108 -267zM547 -29q-241 0 -360 160t-118 392q1 233 113 389q126 175 365 175q238 0 363 -185q111 -164 102 -408h-813q0 -263 190 -377q66 -39 158 -39q141 0 221 74t111 196h129q-40 -180 -150 -278
t-311 -99z" />
    <glyph glyph-name="afii10072" unicode="&#x436;" horiz-adv-x="1509" 
d="M690 1057h129v-539l486 539h174l-412 -443l457 -614h-158l-389 528l-158 -163v-365h-129v365l-158 163l-389 -528h-157l456 614l-411 443h174l485 -541v541z" />
    <glyph glyph-name="afii10073" unicode="&#x437;" horiz-adv-x="993" 
d="M494 -29q-211 -1 -319 97t-118 264h129q26 -188 178 -235q54 -17 137 -17q156 0 225 75q56 60 56 148t-52 143t-173 56h-176v98h145q92 0 158 49t66 144q0 181 -261 184q-145 0 -209 -65t-75 -162h-127q15 177 137 264q100 71 277 71q273 0 360 -152q31 -55 31 -117
q0 -151 -107 -222q-31 -20 -63 -27v-4q137 -22 186 -142q19 -44 19 -118q0 -75 -35 -139q-70 -129 -229 -171q-76 -22 -160 -22z" />
    <glyph glyph-name="afii10074" unicode="&#x438;" horiz-adv-x="1114" 
d="M121 1057h129v-905l584 905h159v-1057h-129v905l-583 -905h-160v1057z" />
    <glyph glyph-name="afii10075" unicode="&#x439;" horiz-adv-x="1114" 
d="M553 1311q90 0 146 44t73 124h80q-48 -267 -301 -267q-254 0 -287 267h80q10 -78 64 -123t145 -45zM121 0v1057h129v-905l584 905h159v-1057h-129v905l-583 -905h-160z" />
    <glyph glyph-name="afii10076" unicode="&#x43a;" horiz-adv-x="1019" 
d="M123 1057h129v-543l586 543h172l-449 -414l475 -643h-162l-407 555l-215 -199v-356h-129v1057z" />
    <glyph glyph-name="afii10077" unicode="&#x43b;" horiz-adv-x="1157" 
d="M1036 1057v-1057h-129v948h-452q0 -612 -109 -823q-61 -113 -150 -128q-42 -7 -87 -7t-101 16v113q31 -12 78 -13q47 -2 72 4q96 25 133 271t39 676h706z" />
    <glyph glyph-name="afii10078" unicode="&#x43c;" horiz-adv-x="1368" 
d="M121 1057h172l393 -912l389 912h172v-1057h-129v870h-6l-371 -870h-114l-371 870h-6v-870h-129v1057z" />
    <glyph glyph-name="afii10079" unicode="&#x43d;" horiz-adv-x="1099" 
d="M121 1057h129v-449h600v449h129v-1057h-129v500h-600v-500h-129v1057z" />
    <glyph glyph-name="afii10080" unicode="&#x43e;" horiz-adv-x="1138" 
d="M940 528q0 177 -98 314t-272 137q-175 0 -274 -136t-98 -315q1 -180 99 -315t272 -135q92 0 162 39q137 76 185 247q24 80 24 164zM569 1087q230 0 371 -165q129 -156 129 -394t-132 -397q-132 -160 -368 -160q-121 0 -214 44q-182 86 -252 297t-1 427t253 303
q93 45 214 45z" />
    <glyph glyph-name="afii10081" unicode="&#x43f;" horiz-adv-x="1085" 
d="M121 1057h844v-1057h-129v948h-586v-948h-129v1057z" />
    <glyph glyph-name="afii10082" unicode="&#x440;" horiz-adv-x="1175" 
d="M623 979q-200 0 -293 -135q-78 -111 -78 -308t83 -315q100 -143 279 -143t274 143q79 118 80 305t-87 320t-258 133zM123 1057h119v-201h4q45 111 146 171q100 60 226 60q234 0 357 -159q123 -160 123 -400t-122 -398q-122 -159 -353 -159q-192 0 -309 129
q-38 43 -58 101h-4v-590h-129v1446z" />
    <glyph glyph-name="afii10083" unicode="&#x441;" 
d="M569 -29q-234 0 -368 161q-133 161 -132 398t134 397t366 160q170 0 288 -90t140 -272h-129q-58 254 -299 254q-174 0 -273 -136t-98 -315q1 -180 99 -315t272 -135q120 0 208 86t100 215h129q-27 -193 -142 -301t-295 -107z" />
    <glyph glyph-name="afii10084" unicode="&#x442;" horiz-adv-x="907" 
d="M389 948h-391v109h911v-109h-391v-948h-129v948z" />
    <glyph glyph-name="afii10085" unicode="&#x443;" horiz-adv-x="948" 
d="M206 -281q94 0 144 99q14 31 31 67l45 119l-422 1053h137l348 -901l326 901h129l-459 -1217q-59 -138 -98 -172q-39 -35 -79 -46t-112 -9t-87 8v109q63 -11 97 -11z" />
    <glyph glyph-name="afii10086" unicode="&#x444;" horiz-adv-x="1638" 
d="M1105 80q329 0 329 444q0 229 -88 342t-228 113q-104 1 -168 -65t-65 -160v-445q0 -104 67 -167q68 -62 153 -62zM535 80q85 0 153 62t68 167v445q0 95 -66 160t-150 65q-157 0 -246 -114t-87 -341q0 -444 328 -444zM1454 946q110 -141 109 -408q0 -267 -118 -417
t-292 -150q-86 0 -158 40t-106 102q-2 -2 -4 0v-502h-129v502h-4q-35 -61 -107 -101t-157 -41q-174 0 -292 150t-118 417t110 408t293 141q184 0 271 -143h4v518h129v-518h4q87 145 271 144t294 -142z" />
    <glyph glyph-name="afii10087" unicode="&#x445;" horiz-adv-x="985" 
d="M412 549l-379 508h162l301 -402l295 402h161l-381 -506l412 -551h-164l-332 444l-325 -444h-160z" />
    <glyph glyph-name="afii10088" unicode="&#x446;" horiz-adv-x="1130" 
d="M985 0h-864v1057h129v-948h579v948h129v-948h156v-445h-129v336z" />
    <glyph glyph-name="afii10089" unicode="&#x447;" horiz-adv-x="1019" 
d="M432 397q-172 0 -259 78t-87 262v320h129v-334q0 -186 152 -205q41 -4 102 -4t153 20t148 44v479h129v-1057h-129v461q-166 -64 -338 -64z" />
    <glyph glyph-name="afii10090" unicode="&#x448;" horiz-adv-x="1603" 
d="M121 1057h129v-948h487v948h129v-948h488v948h129v-1057h-1362v1057z" />
    <glyph glyph-name="afii10091" unicode="&#x449;" horiz-adv-x="1654" 
d="M1509 0h-1388v1057h129v-948h487v948h129v-948h488v948h129v-948h155v-445h-129v336z" />
    <glyph glyph-name="afii10092" unicode="&#x44a;" horiz-adv-x="1239" 
d="M823 109q111 0 173 53t63 157q-1 105 -63 155t-173 50h-348v-415h348zM346 948h-326v109h455v-424h379q154 0 244 -82t90 -232q0 -151 -90 -235t-244 -84h-508v948z" />
    <glyph glyph-name="afii10093" unicode="&#x44b;" horiz-adv-x="1374" 
d="M1124 1057h129v-1057h-129v1057zM561 109q111 0 173 53t63 157q-1 105 -63 155t-173 50h-311v-415h311zM121 1057h129v-424h342q154 0 244 -82t90 -232q0 -151 -90 -235t-244 -84h-471v1057z" />
    <glyph glyph-name="afii10094" unicode="&#x44c;" horiz-adv-x="1024" 
d="M608 109q111 0 173 53t63 157q0 105 -62 155t-174 50h-348v-415h348zM131 1057h129v-424h379q154 0 244 -82t90 -232q0 -151 -90 -235t-244 -84h-508v1057z" />
    <glyph glyph-name="afii10095" unicode="&#x44d;" 
d="M502 -29q-184 -1 -298 97t-147 274h129q29 -129 114 -197t208 -67q154 0 245 108t101 299h-483v109h483q-16 180 -110 284t-248 103q-117 0 -194 -60t-105 -173h-134q29 160 142 250t293 89q221 0 356 -154t135 -407t-132 -404t-355 -151z" />
    <glyph glyph-name="afii10096" unicode="&#x44e;" horiz-adv-x="1525" 
d="M970 979q-162 0 -259 -135t-97 -314q0 -180 98 -316t259 -136q85 0 151 39q133 78 181 243q49 165 0 334t-182 246q-67 39 -151 39zM250 496v-496h-129v1057h129v-453h239q21 206 150 346q130 139 340 138t344 -163q133 -163 133 -397t-132 -395q-132 -162 -351 -162
q-111 0 -199 41q-172 80 -249 279q-36 96 -40 205h-235z" />
    <glyph glyph-name="afii10097" unicode="&#x44f;" horiz-adv-x="1036" 
d="M786 528v420h-352q-106 0 -164 -58t-57 -150q0 -92 57 -152q57 -59 164 -60h352zM403 1057h512v-1057h-129v420h-249l-363 -420h-168l385 428q-141 10 -224 93t-83 221t86 227q88 88 233 88z" />
    <glyph glyph-name="uni0450" unicode="&#x450;" 
d="M461 1493l215 -289h-105l-268 289h158zM199 602h684q-4 152 -96 265q-92 112 -240 112t-240 -110q-93 -111 -108 -267zM547 -29q-241 0 -360 160t-118 392q1 233 113 389q126 175 365 175q238 0 363 -185q111 -164 102 -408h-813q0 -263 190 -377q66 -39 158 -39
q141 0 221 74t111 196h129q-40 -180 -150 -278t-311 -99z" />
    <glyph glyph-name="afii10071" unicode="&#x451;" 
d="M641 1446h139v-207h-139v207zM281 1446h137v-207h-137v207zM199 602h684q-4 152 -96 265q-92 112 -240 112t-240 -110q-93 -111 -108 -267zM547 -29q-241 0 -360 160t-118 392q1 233 113 389q126 175 365 175q238 0 363 -185q111 -164 102 -408h-813q0 -263 190 -377
q66 -39 158 -39q141 0 221 74t111 196h129q-40 -180 -150 -278t-311 -99z" />
    <glyph glyph-name="afii10099" unicode="&#x452;" horiz-adv-x="1120" 
d="M631 1057q369 0 368 -408v-573q1 -211 -109 -338t-335 -127q-43 0 -88 6v121q43 -6 84 -6q174 0 247 94t72 268v535q0 319 -264 319q-148 0 -242 -100t-94 -262v-586h-129v1190h-168v108h168v164h129v-164h478v-108h-478v-346h4q94 213 357 213z" />
    <glyph glyph-name="afii10100" unicode="&#x453;" horiz-adv-x="819" 
d="M344 1204l215 289h160l-270 -289h-105zM133 1057h698v-109h-569v-948h-129v1057z" />
    <glyph glyph-name="afii10101" unicode="&#x454;" 
d="M702 594v-109h-493q10 -190 101 -299t245 -108q123 0 205 68t110 196h129q-35 -166 -145 -268t-293 -103q-223 0 -355 151t-132 401t134 408q135 156 357 154q180 0 290 -89t138 -248h-133q-59 231 -293 231q-154 0 -248 -102t-110 -283h493z" />
    <glyph glyph-name="afii10102" unicode="&#x455;" horiz-adv-x="985" 
d="M498 -29q-186 0 -302 88t-133 283h130q8 -131 95 -198t216 -66q180 0 261 107q28 37 28 89q0 126 -147 172q-42 14 -85 25l-166 37q-143 36 -197 80q-53 43 -75 89q-23 46 -23 120t36 131t93 92q109 67 269 67q260 0 352 -190q31 -63 35 -149h-129q-4 112 -80 172
q-77 59 -187 59t-163 -31q-97 -58 -97 -147q0 -126 220 -183l172 -38q198 -29 274 -172q27 -51 27 -129q0 -79 -39 -139q-77 -119 -236 -152q-75 -17 -149 -17z" />
    <glyph glyph-name="afii10103" unicode="&#x456;" horiz-adv-x="378" 
d="M125 1462h129v-207h-129v207zM125 1057h129v-1057h-129v1057z" />
    <glyph glyph-name="afii10104" unicode="&#x457;" horiz-adv-x="378" 
d="M125 1057h129v-1057h-129v1057zM301 1446h139v-207h-139v207zM-59 1446h137v-207h-137v207z" />
    <glyph glyph-name="afii10105" unicode="&#x458;" horiz-adv-x="378" 
d="M125 1462h129v-207h-129v207zM41 -389q-56 0 -100 4v106q11 -2 77 -2t86 44t21 110v1184h129v-1153q0 -59 -9 -113q-19 -111 -105 -157q-44 -24 -99 -23z" />
    <glyph glyph-name="afii10106" unicode="&#x459;" horiz-adv-x="1800" 
d="M1620 319q0 205 -236 205h-348v-415h348q111 0 174 53q62 53 62 157zM1036 1057v-424h379q154 0 244 -82t90 -232q0 -151 -90 -235t-244 -84h-508v948h-452q0 -612 -109 -823q-61 -113 -150 -128q-42 -7 -87 -7t-101 16v113q31 -12 78 -13q47 -2 72 4q96 25 133 271
t39 676h706z" />
    <glyph glyph-name="afii10107" unicode="&#x45a;" horiz-adv-x="1742" 
d="M1327 109q234 0 236 204q-1 105 -63 155t-173 50h-348v-409h348zM121 1057h129v-430h600v430h129v-430h379q154 0 244 -82t90 -232q0 -149 -90 -231t-244 -82h-508v518h-600v-518h-129v1057z" />
    <glyph glyph-name="afii10108" unicode="&#x45b;" horiz-adv-x="1120" 
d="M631 1057q369 0 368 -408v-649h-129v629q0 319 -264 319q-148 0 -242 -100t-94 -262v-586h-129v1190h-168v108h168v164h129v-164h478v-108h-478v-346h4q94 213 357 213z" />
    <glyph glyph-name="afii10109" unicode="&#x45c;" horiz-adv-x="1024" 
d="M426 1204l215 289h160l-271 -289h-104zM123 1057h129v-543l586 543h172l-449 -414l475 -643h-162l-407 555l-215 -199v-356h-129v1057z" />
    <glyph glyph-name="uni045D" unicode="&#x45d;" horiz-adv-x="1114" 
d="M487 1493l215 -289h-104l-268 289h157zM121 1057h129v-905l584 905h159v-1057h-129v905l-583 -905h-160v1057z" />
    <glyph glyph-name="afii10110" unicode="&#x45e;" horiz-adv-x="948" 
d="M485 1311q90 0 147 44q56 44 73 124h79q-48 -267 -301 -267t-286 267h79q10 -78 64 -123t145 -45zM206 -281q94 0 144 99q14 31 31 67l45 119l-422 1053h137l348 -901l326 901h129l-459 -1217q-59 -138 -98 -172q-39 -35 -79 -46t-112 -9t-87 8v109q63 -11 97 -11z" />
    <glyph glyph-name="afii10193" unicode="&#x45f;" horiz-adv-x="1079" 
d="M475 0h-354v1057h129v-948h579v948h129v-1057h-354v-336h-129v336z" />
    <glyph glyph-name="afii10146" unicode="&#x462;" horiz-adv-x="1507" 
d="M983 119q154 0 240 81t86 222t-86 222t-240 81h-479v-606h479zM365 1130h-365v119h365v213h139v-213h510v-119h-510v-286h510q206 0 320 -113t114 -309t-115 -310q-115 -112 -319 -112h-649v1130z" />
    <glyph glyph-name="afii10194" unicode="&#x463;" horiz-adv-x="1155" 
d="M739 109q111 0 173 53t63 157q-1 105 -63 155t-173 50h-348v-415h348zM262 948h-262v109h262v405h129v-405h393v-109h-393v-315h379q154 0 244 -82t90 -232q0 -151 -90 -235t-244 -84h-508v948z" />
    <glyph glyph-name="uni046A" unicode="&#x46a;" horiz-adv-x="1892" 
d="M1282 1343h-678l334 -493zM123 410q0 74 13 148q28 160 198 234q90 38 244 37h227l-445 633h1162l-449 -633h242q276 0 381 -136q73 -93 73 -283v-410h-139v401q0 130 -41 187t-103 89t-173 32h-297v-709h-139v709h-297q-188 0 -269 -110q-49 -68 -49 -198v-401h-139v410
z" />
    <glyph glyph-name="uni046B" unicode="&#x46b;" horiz-adv-x="1452" 
d="M942 948h-434l219 -293zM102 258q0 184 87 260t247 76h174l-346 463h920l-348 -463h180q160 0 247 -76t87 -260v-258h-129v272q0 133 -77 184q-34 22 -75 26t-80 3h-198v-485h-129v485h-199q-108 1 -149 -25q-83 -53 -83 -188v-272h-129v258z" />
    <glyph glyph-name="afii10147" unicode="&#x472;" horiz-adv-x="1517" 
d="M1038 702q58 0 132 44t130 100q-26 225 -165 377q-139 151 -375 151q-268 0 -417 -196q-130 -170 -134 -433q159 128 293 132q51 0 127 -29t285 -118q66 -28 124 -28zM492 756q-114 0 -224 -98q-29 -26 -51 -46q30 -224 166 -374t389 -150t402 195q131 169 135 432
q-166 -133 -291 -133q-57 0 -130 28t-147 59q-73 31 -139 59t-110 28zM242 200q-172 209 -172 530t172 533q86 105 216 167t302 63q329 0 516 -230q172 -210 172 -532t-172 -530q-190 -230 -516 -230q-172 1 -302 63t-216 166z" />
    <glyph glyph-name="afii10195" unicode="&#x473;" horiz-adv-x="1138" 
d="M749 532q80 0 183 93q-26 152 -120 253t-248 101q-155 0 -254 -118q-98 -118 -109 -281q84 75 178 73q62 -1 195 -61q134 -60 175 -60zM940 518q-109 -86 -186 -86q-76 0 -206 59t-178 59q-80 1 -169 -85q17 -161 113 -274t260 -113t263 128t103 312zM569 1087
q230 0 371 -165q129 -156 129 -394t-132 -397q-132 -160 -368 -160q-121 0 -214 44q-182 86 -252 297t-1 427t253 303q93 45 214 45z" />
    <glyph glyph-name="afii10148" unicode="&#x474;" horiz-adv-x="1325" 
d="M1304 1362q-44 0 -67 -2q-51 -4 -92 -55q-23 -27 -39 -76l-436 -1229h-162l-520 1462h147l455 -1308h4l389 1122q60 184 206 203q38 4 87 4t100 -17v-118q-28 14 -72 14z" />
    <glyph glyph-name="afii10196" unicode="&#x475;" horiz-adv-x="1050" 
d="M956 1075q22 0 35 -2l31 -4q30 -4 49 -10v-113q-31 12 -109 13q-78 2 -120 -117l-293 -842h-137l-408 1057h143l332 -928h4l250 772q48 151 167 169q34 5 56 5z" />
    <glyph glyph-name="Izhitsadblgravecyrillic" unicode="&#x476;" horiz-adv-x="1325" 
d="M1022 1585h-102l-258 289h155zM705 1585h-105l-258 289h156zM1304 1362q-44 0 -67 -2q-51 -4 -92 -55q-23 -27 -39 -76l-436 -1229h-162l-520 1462h147l455 -1308h4l389 1122q60 184 206 203q38 4 87 4t100 -17v-118q-28 14 -72 14z" />
    <glyph glyph-name="izhitsadblgravecyrillic" unicode="&#x477;" horiz-adv-x="1050" 
d="M877 1184h-103l-258 289h156zM559 1184h-104l-258 289h155zM956 1075q22 0 35 -2l31 -4q30 -4 49 -10v-113q-31 12 -109 13q-78 2 -120 -117l-293 -842h-137l-408 1057h143l332 -928h4l250 772q48 151 167 169q34 5 56 5z" />
    <glyph glyph-name="uni048C" unicode="&#x48c;" horiz-adv-x="1466" 
d="M942 119q154 0 240 81t86 222t-86 222t-240 81h-479v-606h479zM324 1343h-324v119h324v213h139v-213h346v-119h-346v-499h510q205 0 319 -113t115 -309q0 -196 -115 -310q-115 -112 -319 -112h-649v1343z" />
    <glyph glyph-name="uni048D" unicode="&#x48d;" horiz-adv-x="1114" 
d="M698 109q111 0 173 53t63 157q0 105 -62 155t-174 50h-348v-415h348zM221 948h-221v109h221v246h129v-246h242v-109h-242v-315h379q154 0 244 -82t90 -232q0 -151 -90 -235t-244 -84h-508v948z" />
    <glyph glyph-name="afii10050" unicode="&#x490;" horiz-adv-x="1052" 
d="M160 1462h764v330h139v-449h-764v-1343h-139v1462z" />
    <glyph glyph-name="afii10098" unicode="&#x491;" horiz-adv-x="819" 
d="M133 1057h555v317h129v-426h-555v-948h-129v1057z" />
    <glyph glyph-name="uni0492" unicode="&#x492;" horiz-adv-x="1183" 
d="M291 696h-250v119h250v647h903v-119h-764v-528h420v-119h-420v-696h-139v696z" />
    <glyph glyph-name="uni0493" unicode="&#x493;" horiz-adv-x="927" 
d="M242 477h-201v109h201v471h698v-109h-569v-362h352v-109h-352v-477h-129v477z" />
    <glyph glyph-name="uni0496" unicode="&#x496;" horiz-adv-x="2068" 
d="M944 1462h139v-770l721 770h189l-607 -631l564 -712h174v-508h-139v389h-121l-576 729l-205 -213v-516h-139v516l-205 213l-575 -729h-180l657 831l-606 631h188l721 -770v770z" />
    <glyph glyph-name="uni0497" unicode="&#x497;" horiz-adv-x="1550" 
d="M690 1057h129v-539l486 539h174l-412 -443l377 -505h155v-445h-129v336h-104l-389 528l-158 -163v-365h-129v365l-158 163l-389 -528h-157l456 614l-411 443h174l485 -541v541z" />
    <glyph glyph-name="uni0498" unicode="&#x498;" horiz-adv-x="1284" 
d="M629 -340q129 0 129 88q0 76 -105 78q-51 0 -88 -16l-33 30l101 129q-399 13 -515 290q-40 93 -40 210v12h133q0 -203 125 -301t320 -98t302 101t107 234t-94 212q-94 78 -238 80h-233v118h233q122 0 207 67q86 67 86 198q0 132 -102 214q-91 70 -252 70
q-277 0 -374 -187q-32 -62 -38 -145h-135q12 220 159 335q147 114 373 114q225 0 367 -100q140 -100 141 -297q0 -165 -137 -267q-39 -29 -78 -43v-6q117 -32 186 -118q68 -86 68 -243t-119 -288q-133 -148 -380 -160l-66 -88q154 25 214 -51q24 -29 24 -76q-1 -87 -69 -131
q-69 -45 -137 -45q-130 0 -210 43l26 66q79 -29 142 -29z" />
    <glyph glyph-name="uni0499" unicode="&#x499;" horiz-adv-x="993" 
d="M449 -340q129 0 129 88q0 76 -106 78q-52 0 -87 -16l-33 30l103 133q-182 8 -281 95q-106 98 -117 264h129q26 -188 178 -235q54 -17 137 -17q156 0 225 75q56 60 56 148t-52 143t-173 56h-176v98h145q92 0 158 49t66 144q0 181 -261 184q-145 0 -209 -65t-75 -162h-127
q15 177 137 264q100 71 277 71q273 0 360 -152q31 -55 31 -117q0 -151 -107 -222q-31 -20 -63 -27v-4q137 -22 186 -142q19 -44 19 -118q0 -75 -35 -139q-71 -130 -230 -170q-61 -18 -127 -21l-67 -90q151 25 214 -51q23 -29 23 -76q-1 -88 -68 -132q-68 -44 -137 -44
q-130 0 -210 43l26 66q79 -29 142 -29z" />
    <glyph glyph-name="uni049A" unicode="&#x49a;" horiz-adv-x="1368" 
d="M1296 0h-120l-609 762l-280 -260v-502h-140v1462h140v-786l850 786h188l-653 -604l590 -739h174v-508h-140v389z" />
    <glyph glyph-name="uni049B" unicode="&#x49b;" horiz-adv-x="1060" 
d="M983 0h-109l-407 555l-215 -199v-356h-129v1057h129v-543l586 543h172l-449 -414l395 -534h156v-445h-129v336z" />
    <glyph glyph-name="uni049C" unicode="&#x49c;" horiz-adv-x="1327" 
d="M147 1462h140v-635h149v322h92v-322h47l572 635h178l-627 -680l658 -782h-180l-601 709h-47v-349h-92v349h-149v-709h-140v1462z" />
    <glyph glyph-name="uni049D" unicode="&#x49d;" horiz-adv-x="1019" 
d="M123 1057h129v-449h84v242h92v-242h41l381 449h160l-432 -488l458 -569h-162l-405 500h-41v-254h-92v254h-84v-500h-129v1057z" />
    <glyph glyph-name="uni04A0" unicode="&#x4a0;" horiz-adv-x="1611" 
d="M432 1343h-442v119h581v-786l850 786h189l-654 -604l684 -858h-180l-608 762l-281 -260v-502h-139v1343z" />
    <glyph glyph-name="uni04A1" unicode="&#x4a1;" horiz-adv-x="1243" 
d="M346 948h-326v109h455v-543l586 543h172l-449 -414l476 -643h-162l-408 555l-215 -199v-356h-129v948z" />
    <glyph glyph-name="uni04A2" unicode="&#x4a2;" horiz-adv-x="1484" 
d="M1329 0h-174v709h-868v-709h-140v1462h140v-635h868v635h139v-1343h174v-508h-139v389z" />
    <glyph glyph-name="uni04A3" unicode="&#x4a3;" horiz-adv-x="1150" 
d="M1006 0h-156v500h-600v-500h-129v1057h129v-449h600v449h129v-948h156v-445h-129v336z" />
    <glyph glyph-name="uni04A4" unicode="&#x4a4;" horiz-adv-x="2048" 
d="M147 1462h140v-635h868v635h903v-119h-764v-1343h-139v709h-868v-709h-140v1462z" />
    <glyph glyph-name="uni04A5" unicode="&#x4a5;" horiz-adv-x="1536" 
d="M121 1057h129v-449h600v449h698v-109h-569v-948h-129v500h-600v-500h-129v1057z" />
    <glyph glyph-name="uni04AA" unicode="&#x4aa;" horiz-adv-x="1441" 
d="M732 -340q128 0 128 88q0 76 -104 78q-52 0 -88 -16l-33 30l102 131q-308 12 -484 225q-175 213 -175 534t172 533q86 105 216 167t302 63q219 0 389 -126t199 -347h-139q-36 167 -162 261q-126 95 -279 94q-282 -2 -429 -203q-130 -177 -130 -440t130 -442
q149 -202 421 -202q196 0 322 134t147 335h139q-28 -272 -182 -422q-154 -149 -385 -162l-68 -90q154 25 214 -51q24 -29 24 -76q-1 -87 -69 -131q-68 -45 -136 -45q-130 0 -211 43l27 66q79 -29 142 -29z" />
    <glyph glyph-name="uni04AB" unicode="&#x4ab;" 
d="M754 -244q0 -87 -68 -131q-69 -45 -138 -45q-130 0 -210 43l27 66q78 -29 141 -29q129 0 129 88q0 76 -105 78q-51 0 -88 -16l-32 30l104 133q-195 18 -321 169q-125 151 -124 388t134 397t366 160q170 0 288 -90t140 -272h-129q-58 254 -299 254q-174 0 -273 -136
t-98 -315q1 -180 99 -315t272 -135q120 0 208 86t100 215h129q-27 -193 -140 -298t-282 -110l-68 -88q154 25 214 -51q24 -29 24 -76z" />
    <glyph glyph-name="uni04AE" unicode="&#x4ae;" horiz-adv-x="1251" 
d="M694 0h-139v602l-573 860h163l482 -741l479 741h166l-578 -860v-602z" />
    <glyph glyph-name="uni04AF" unicode="&#x4af;" horiz-adv-x="948" 
d="M551 -389h-129v403l-418 1043h137l348 -901l326 901h129l-393 -1047v-399z" />
    <glyph glyph-name="uni04B0" unicode="&#x4b0;" horiz-adv-x="1251" 
d="M555 346h-332v119h332v137l-573 860h163l482 -741l479 741h166l-578 -860v-137h338v-119h-338v-346h-139v346z" />
    <glyph glyph-name="uni04B1" unicode="&#x4b1;" horiz-adv-x="948" 
d="M422 -186h-262v108h262v92l-418 1043h137l348 -901l326 901h129l-393 -1047v-88h262v-108h-262v-203h-129v203z" />
    <glyph glyph-name="uni04B2" unicode="&#x4b2;" horiz-adv-x="1216" 
d="M1147 0h-119l-444 645l-451 -645h-156l525 754l-496 708h164l414 -612l428 612h155l-499 -712l444 -631h174v-508h-139v389z" />
    <glyph glyph-name="uni04B3" unicode="&#x4b3;" horiz-adv-x="1026" 
d="M928 0h-109l-332 444l-325 -444h-160l410 549l-379 508h162l301 -402l295 402h161l-381 -506l330 -442h156v-445h-129v336z" />
    <glyph glyph-name="uni04B6" unicode="&#x4b6;" horiz-adv-x="1333" 
d="M574 725q144 0 430 59v678h139v-1343h174v-508h-139v389h-174v666q-99 -25 -249 -44q-151 -18 -200 -18q-282 0 -393 136q-78 96 -78 284v438h139v-430q0 -129 41 -186q42 -57 104 -89t206 -32z" />
    <glyph glyph-name="uni04B7" unicode="&#x4b7;" horiz-adv-x="1071" 
d="M432 397q-172 0 -259 78t-87 262v320h129v-334q0 -186 152 -205q41 -4 102 -4t153 20t148 44v479h129v-948h156v-445h-129v336h-156v461q-166 -64 -338 -64z" />
    <glyph glyph-name="uni04B8" unicode="&#x4b8;" horiz-adv-x="1290" 
d="M651 279h-92v325h-4q-282 0 -393 136q-78 96 -78 284v438h139v-430q0 -129 41 -186q42 -57 104 -89t173 -32h18v322h92v-318q197 14 353 55v678h139v-1462h-139v666q-162 -39 -353 -58v-329z" />
    <glyph glyph-name="uni04B9" unicode="&#x4b9;" horiz-adv-x="1019" 
d="M528 154h-92v243h-16q-160 0 -247 78t-87 262v320h129v-334q0 -181 143 -204q39 -5 78 -5v244h92v-240q138 16 242 60v479h129v-1057h-129v461q-121 -43 -242 -58v-249z" />
    <glyph glyph-name="uni04BA" unicode="&#x4ba;" horiz-adv-x="1290" 
d="M1067 471q0 128 -41 186q-41 57 -103 89t-216 32t-420 -59v-719h-140v1462h140v-624q117 30 258 46q142 15 190 15q282 0 393 -136q78 -96 78 -284v-479h-139v471z" />
    <glyph glyph-name="uni04BB" unicode="&#x4bb;" horiz-adv-x="1099" 
d="M121 1462h129v-588h4q37 98 131 156t206 57q311 0 370 -237q18 -76 18 -170v-680h-129v659q0 320 -268 320q-149 0 -239 -102q-91 -102 -93 -261v-616h-129v1462z" />
    <glyph glyph-name="uni04C0" unicode="&#x4c0;" horiz-adv-x="454" 
d="M158 1462h139v-1462h-139v1462z" />
    <glyph glyph-name="uni04C1" unicode="&#x4c1;" horiz-adv-x="2027" 
d="M1008 1624q-124 0 -200 68q-77 68 -87 192h80q2 -41 20 -73q53 -95 209 -95q58 0 121 44t76 124h80q-15 -124 -95 -192t-204 -68zM944 1462h139v-770l721 770h189l-607 -631l658 -831h-180l-576 729l-205 -213v-516h-139v516l-205 213l-575 -729h-180l657 831l-606 631
h188l721 -770v770z" />
    <glyph glyph-name="uni04C2" unicode="&#x4c2;" horiz-adv-x="1509" 
d="M561 1406q53 -95 209 -95q58 0 121 44t76 124h80q-15 -123 -95 -192t-204 -69t-200 68q-77 68 -87 193h80q2 -41 20 -73zM690 1057h129v-539l486 539h174l-412 -443l457 -614h-158l-389 528l-158 -163v-365h-129v365l-158 163l-389 -528h-157l456 614l-411 443h174
l485 -541v541z" />
    <glyph glyph-name="uni04D0" unicode="&#x4d0;" horiz-adv-x="1290" 
d="M640 1624q-124 0 -201 68t-87 192h80q2 -41 21 -73q53 -95 207 -95q58 0 122 44q63 44 76 124h80q-16 -124 -95 -192t-203 -68zM930 573l-283 750l-293 -750h576zM575 1462h156l574 -1462h-150l-178 455h-666l-176 -455h-147z" />
    <glyph glyph-name="uni04D1" unicode="&#x4d1;" 
d="M338 1406q53 -95 208 -95q58 0 122 44q63 44 75 124h80q-16 -123 -95 -192t-203 -69q-125 0 -201 68t-86 193h79q2 -41 21 -73zM444 78q60 0 128 22t117 66q110 95 110 244v168h-4q-16 -31 -104 -46q-87 -16 -174 -27q-322 -41 -322 -205q0 -106 71 -166q67 -56 178 -56z
M539 1087q389 0 389 -339v-562q0 -78 76 -77q25 0 40 8v-109q-46 -8 -89 -8q-122 0 -141 110q-5 34 -5 74h-4q-78 -114 -160 -164q-82 -49 -225 -49q-245 0 -327 169q-27 58 -27 154t49 158t130 95t182 46t200 24t124 29q47 34 47 108q2 185 -168 216q-50 9 -108 9
q-122 0 -200 -58t-82 -188h-129q12 187 128 271t300 83z" />
    <glyph glyph-name="uni04D2" unicode="&#x4d2;" horiz-adv-x="1290" 
d="M756 1821h139v-207h-139v207zM395 1821h137v-207h-137v207zM930 573l-283 750l-293 -750h576zM575 1462h156l574 -1462h-150l-178 455h-666l-176 -455h-147z" />
    <glyph glyph-name="uni04D3" unicode="&#x4d3;" 
d="M641 1446h139v-207h-139v207zM281 1446h137v-207h-137v207zM444 78q60 0 128 22t117 66q110 95 110 244v168h-4q-16 -31 -104 -46q-87 -16 -174 -27q-322 -41 -322 -205q0 -106 71 -166q67 -56 178 -56zM539 1087q389 0 389 -339v-562q0 -78 76 -77q25 0 40 8v-109
q-46 -8 -89 -8q-122 0 -141 110q-5 34 -5 74h-4q-78 -114 -160 -164q-82 -49 -225 -49q-245 0 -327 169q-27 58 -27 154t49 158t130 95t182 46t200 24t124 29q47 34 47 108q2 185 -168 216q-50 9 -108 9q-122 0 -200 -58t-82 -188h-129q12 187 128 271t300 83z" />
    <glyph glyph-name="uni04D4" unicode="&#x4d4;" horiz-adv-x="1857" 
d="M911 582v761h-82l-387 -761h469zM1802 1462v-119h-751v-528h704v-119h-704v-577h759v-119h-899v463h-530l-238 -463h-155l764 1462h1050z" />
    <glyph glyph-name="uni04D5" unicode="&#x4d5;" horiz-adv-x="1781" 
d="M1593 602q0 152 -93 265q-93 112 -243 112t-243 -112q-92 -112 -86 -265h665zM444 78q60 0 128 22t117 66q110 95 110 244v168h-4q-16 -31 -104 -46q-87 -16 -174 -27q-322 -41 -322 -205q0 -106 71 -166q67 -56 178 -56zM420 -29q-245 0 -327 169q-27 58 -27 154t49 158
t130 95t182 46t200 24t124 29q47 34 47 108q2 185 -168 216q-50 9 -108 9q-122 0 -200 -58t-82 -188h-129q12 187 128 271t300 83q216 0 306 -108q36 -43 46 -111h4q38 106 141 162q103 57 232 57t216 -49q242 -136 238 -544h-794q-13 -180 78 -298t266 -118q254 0 313 264
h129q-41 -180 -158 -275t-303 -96q-293 0 -387 265h-4q-22 -125 -155 -195q-132 -70 -287 -70z" />
    <glyph glyph-name="uni04D6" unicode="&#x4d6;" horiz-adv-x="1214" 
d="M658 1624q-124 0 -200 68t-87 192h80q2 -41 20 -73q53 -95 208 -95q58 0 122 44q63 44 76 124h79q-16 -124 -95 -192t-203 -68zM147 1462h1010v-119h-870v-528h815v-119h-815v-577h880v-119h-1020v1462z" />
    </font>
</defs>
</svg>
